Wednesday, 18.10.2017, 22:12
Welcome Guest | RSS
Main
Registration
Login




Vinyl [7]
Alternative [103]
Jazz [26]
Classic rock [179]
Classical [9]
Hard & Heavy [60]
Mainstream [53]
Hip-Hop [3]
Meditative [11]
New Beats [8]
Progressive [38]
Roots [25]
OST, Campilation [28]
DTS Releases [4]
Dvd Rip [7]
DVD [7]
Lossless HTTP [54]

Rate my site
Total of answers: 17


Total online: 1
Guests: 1
Users: 0

Login form

Main » 2010 » July » 5 » XTC - Nonsuch (1992)
21:54
XTC - Nonsuch (1992)

Artist: XTC
Album: Nonsuch
Released: 1992
Genre: Post punk/new wave
Format: eac.ape covers

Quote
Since Skylarking, each XTC album was carefully composed and crafted, and Nonsuch is no different. Working with producer Gus Dudgeon (Elton John), XTC crafted their most immaculate album to date with Nonsuch. A measured and reflective record, recalling the Beach Boys more than the Beatles, the album retains some of their late-'80s psychedelic flourishes, but those have been integrated into an elaborate, lush pop setting that falls somewhere between Skylarking and Oranges & Lemons. While it lacks the thematic unity of Skylarking, as well as the grandstanding eclecticism of Oranges & Lemons, Nonsuch is in many ways more musically consistent, presenting a set of 17 wonderfully detailed and immediately catchy pop songs, ranging from the relatively rocking "The Ballad of Peter Pumpkinhead" to the sweet "Holly up on Poppy." Occasionally, the album dips slightly lyrically -- Colin Moulding's "The Smartest Monkeys" and "War Dance" are a little too preachy -- but never musically, making Nonsuch a modest, minor masterpiece.

01. The Ballad Of Peter Pumpkinhead [0:05:00.70]
02. My Bird Performs [0:03:50.65]
03. Dear Madam Barnum [0:02:53.02]
04. Humble Daisy [0:03:39.00]
05. The Smartest Monkeys [0:04:17.73]
06. The Disappointed [0:03:23.17]
07. Holly Up On Poppy [0:03:04.33]
08. Crocodile [0:03:56.37]
09. Rook [0:03:47.25]
10. Omnibus [0:03:20.18]
11. That Wave [0:03:33.37]
12. Then She Appeared [0:03:52.10]
13. War Dance [0:03:22.40]
14. Wrapped In Grey [0:03:46.18]
15. The Ugly Underneath [0:03:55.60]
16. Bungalow [0:02:49.02]
17. Books Are Burning [0:04:50.73]

Code
Exact Audio Copy V0.99 prebeta 3 from 28. July 2007

EAC extraction logfile from 1. May 2008, 18:27

XTC / Nonsuch

Used drive  : Optiarc DVD RW AD-7170A   Adapter: 1  ID: 0

Read mode               : Secure
Utilize accurate stream : Yes
Defeat audio cache      : Yes
Make use of C2 pointers : No

Read offset correction                      : 48
Overread into Lead-In and Lead-Out          : No
Fill up missing offset samples with silence : Yes
Delete leading and trailing silent blocks   : No
Null samples used in CRC calculations       : Yes
Used interface                    : Installed external ASPI interface

Used output format : Internal WAV Routines
Sample format      : 44.100 Hz; 16 Bit; Stereo

TOC of the extracted CD

       Track |   Start  |  Length  | Start sector | End sector   
      ---------------------------------------------------------
          1  |  0:00.00 |  5:00.70 |         0    |    22569     
          2  |  5:00.70 |  3:50.65 |     22570    |    39884     
          3  |  8:51.60 |  2:53.02 |     39885    |    52861     
          4  | 11:44.62 |  3:39.00 |     52862    |    69286     
          5  | 15:23.62 |  4:17.73 |     69287    |    88634     
          6  | 19:41.60 |  3:23.17 |     88635    |   103876     
          7  | 23:05.02 |  3:04.33 |    103877    |   117709     
          8  | 26:09.35 |  3:56.37 |    117710    |   135446     
          9  | 30:05.72 |  3:47.25 |    135447    |   152496     
         10  | 33:53.22 |  3:20.18 |    152497    |   167514     
         11  | 37:13.40 |  3:33.37 |    167515    |   183526     
         12  | 40:47.02 |  3:52.10 |    183527    |   200936     
         13  | 44:39.12 |  3:22.40 |    200937    |   216126     
         14  | 48:01.52 |  3:46.18 |    216127    |   233094     
         15  | 51:47.70 |  3:55.60 |    233095    |   250779     
         16  | 55:43.55 |  2:49.02 |    250780    |   263456     
         17  | 58:32.57 |  4:50.73 |    263457    |   285279     

Range status and errors

Selected range

       Filename C:\XTC.-.Nonsuch.by.rat.eac.ape.covers.Israel-club.my1.ru\XTC.-.Nonsuch.by.rat.eac.ape.covers.Israel-club.my1.ru.wav

       Peak level 97.3 %
       Range quality 100.0 %
       Copy CRC F18FBD86
       Copy OK

No errors occurred

End of status report

My WebPage

Category: Alternative | Views: 215 | Added by: Rat | Rating: 0.0/0
Total comments: 0
Only registered users can add comments.
[ Registration | Login ]

«  July 2010  »
SuMoTuWeThFrSa
    123
45678910
11121314151617
18192021222324
25262728293031


  • Israel-club.my1.ru


  • Copyright MyCorp © 2017