Wednesday, 18.10.2017, 22:19
Welcome Guest | RSS
Main
Registration
Login




Vinyl [7]
Alternative [103]
Jazz [26]
Classic rock [179]
Classical [9]
Hard & Heavy [60]
Mainstream [53]
Hip-Hop [3]
Meditative [11]
New Beats [8]
Progressive [38]
Roots [25]
OST, Campilation [28]
DTS Releases [4]
Dvd Rip [7]
DVD [7]
Lossless HTTP [54]

Rate my site
Total of answers: 17


Total online: 1
Guests: 1
Users: 0

Login form

Main » 2010 » July » 5 » The Damned - Phantasmagoria (1985)
22:40
The Damned - Phantasmagoria (1985)

Artist - The Damned
Album - Phantasmagoria
Genre- post punk
Year- 1985
format-eac/ape

Quote

For longtime Damned fans, "Phantasmagoria" and the follow-up album "Anything" were not welcome creations from the band that started the punk scene (they beat the Sex Pistols and Clash with the first record contract).

By 1985, the band's sound was more gothic-pop than punk (Fans of The Cure, Sisters of Mercy, or Clan of Xymox take note). The album cover itself reflects the dark undertones found throughout many of the songs. Plenty of synths, organs, harpsicords and a touch of wind and howling here.

"The Shadow of Love" is a haunting song with David Vanian's howl-like vocals and a driving bassline in the fashion of Killing Joke's "Love Like Blood" or Sisters of Mercy's "This Corrosion."

"Is It A Dream" and "Edward The Bear" are pure pop and about as commercial as The Damned would ever become while "Grimly Fiendish" is a classic and humourous Halloween-flavoured track with a great harpsicord intro. The final track, "Trojans" (before the two bonus mixes)is an almost romantic instrumental and a perfect end to a very good album.

As I said before, this album is not for early Damned fans so keep that in mind if "Smash It Up" and "Disco Man" are favorites. If you are a goth or darkwave fan, you must must must add this to your collection. There is a reason why this album is one of the band's hardest to find. If you like The Cure, Xymox, Sisters of Mercy or mid-80's Killing Joke and The Cult, then grab this CD and the equally dark follow-up "Anything."

1. Street of Dreams
2. Shadow of Love
3. There'll Come a Day
4. Sanctum Sanctorum
5. Is It a Dream
6. Grimly Fiendish
7. Edward the Bear
8. Eighth Day
9. Trojans
10. Grimly Fiendish [The Bad Trip Mix]


  • 11. Shadow of Love [10'' of Hell Mix]
  • Code
    Exact Audio Copy V0.99 prebeta 3 from 28. July 2007

    EAC extraction logfile from 20. July 2008, 21:43

    The Damned / Phantasmagoria

    Used drive  : Optiarc DVD RW AD-7170A   Adapter: 1  ID: 0

    Read mode               : Secure
    Utilize accurate stream : Yes
    Defeat audio cache      : Yes
    Make use of C2 pointers : No

    Read offset correction                      : 48
    Overread into Lead-In and Lead-Out          : No
    Fill up missing offset samples with silence : Yes
    Delete leading and trailing silent blocks   : No
    Null samples used in CRC calculations       : Yes
    Used interface                    : Installed external ASPI interface

    Used output format : Internal WAV Routines
    Sample format      : 44.100 Hz; 16 Bit; Stereo

    TOC of the extracted CD

           Track |   Start  |  Length  | Start sector | End sector   
          ---------------------------------------------------------
              1  |  0:00.00 |  5:38.25 |         0    |    25374     
              2  |  5:38.25 |  3:50.47 |     25375    |    42671     
              3  |  9:28.72 |  4:16.03 |     42672    |    61874     
              4  | 13:45.00 |  6:25.35 |     61875    |    90784     
              5  | 20:10.35 |  3:30.39 |     90785    |   106573     
              6  | 23:40.74 |  3:49.48 |    106574    |   123796     
              7  | 27:30.47 |  3:36.65 |    123797    |   140061     
              8  | 31:07.37 |  3:47.15 |    140062    |   157101     
              9  | 34:54.52 |  4:51.45 |    157102    |   178971     
             10  | 39:46.22 |  5:12.15 |    178972    |   202386     
             11  | 44:58.37 |  6:44.20 |    202387    |   232706     

    Range status and errors

    Selected range

           Filename C:\The Damned - Phantasmagoria..by.rat.eac.ape.Israel-club.my1.ru\The Damned - Phantasmagoria..by.rat.eac.ape.Israel-club.my1.ru.wav

           Peak level 97.2 %
           Range quality 100.0 %
           Copy CRC 82172754
           Copy OK

    No errors occurred

         
    AccurateRip summary
         
    Track  1  not present in database
    Track  2  not present in database
    Track  3  not present in database
    Track  4  not present in database
    Track  5  not present in database
    Track  6  not present in database
    Track  7  not present in database
    Track  8  not present in database
    Track  9  not present in database
    Track 10  not present in database
    Track 11  not present in database
         
    None of the tracks are present in the AccurateRip database

    End of status report

    My WebPage

  • Category: Alternative | Views: 248 | Added by: Rat | Rating: 0.0/0
    Total comments: 0
    Only registered users can add comments.
    [ Registration | Login ]

    «  July 2010  »
    SuMoTuWeThFrSa
        123
    45678910
    11121314151617
    18192021222324
    25262728293031


  • Israel-club.my1.ru


  • Copyright MyCorp © 2017