Friday, 22.09.2017, 13:41
Welcome Guest | RSS
Main
Registration
Login




Vinyl [7]
Alternative [103]
Jazz [26]
Classic rock [179]
Classical [9]
Hard & Heavy [60]
Mainstream [53]
Hip-Hop [3]
Meditative [11]
New Beats [8]
Progressive [38]
Roots [25]
OST, Campilation [28]
DTS Releases [4]
Dvd Rip [7]
DVD [7]
Lossless HTTP [54]

Rate my site
Total of answers: 17


Total online: 1
Guests: 1
Users: 0

Login form

Main » 2010 » July » 5 » Ministry - With Sympathy (1983)
22:02
Ministry - With Sympathy (1983)

Artist: Ministry
Album: With Sympathy
Released: 1983
Genre: Dance-Rock/Alternative Pop
Format: eac.ape covers

Quote
Rather than the trademark bone-munching industrial metal of later years, With Sympathy is panto-goth new wave synth-pop that sounds less like the band chewing your pancreas and more like Human League's surly little brother. Great stuff, then, for those who allied themselves with Ally Sheedy's character in The Breakfast Club. "Here We Go" grinds all over some electronic horns, "Work for Love" stop-starts and shouts about like "Walk This Way" without all that scary rap, and the whole record becomes a secret weapon against the contrived snarls of the albums to follow. Surely, Al Jourgensen must be more insecure about his past than a superstar linebacker over childhood courses in ballet.

01. Effigy (I'm Not An) [0:03:51.52]
02. Revenge [0:03:48.63]
03. I Wanted to Tell Her [0:05:29.22]
04. Work for Love [0:04:43.50]
05. Here We Go [0:03:22.60]
06. What He Say [0:04:04.60]
07. Say You're Sorry [0:04:16.40]
08. Should Have Known Better [0:04:30.63]
09. She's Got a Cause [0:03:36.45]

Code

Exact Audio Copy V0.99 prebeta 3 from 28. July 2007

EAC extraction logfile from 13. May 2008, 5:41

Ministry / With Sympathy

Used drive  : Optiarc DVD RW AD-7170A   Adapter: 1  ID: 0

Read mode               : Secure
Utilize accurate stream : Yes
Defeat audio cache      : Yes
Make use of C2 pointers : No

Read offset correction                      : 48
Overread into Lead-In and Lead-Out          : No
Fill up missing offset samples with silence : Yes
Delete leading and trailing silent blocks   : No
Null samples used in CRC calculations       : Yes
Used interface                    : Installed external ASPI interface

Used output format : Internal WAV Routines
Sample format      : 44.100 Hz; 16 Bit; Stereo

TOC of the extracted CD

       Track |   Start  |  Length  | Start sector | End sector   
      ---------------------------------------------------------
          1  |  0:00.00 |  3:51.52 |         0    |    17376     
          2  |  3:51.52 |  3:48.63 |     17377    |    34539     
          3  |  7:40.40 |  5:29.22 |     34540    |    59236     
          4  | 13:09.62 |  4:43.50 |     59237    |    80511     
          5  | 17:53.37 |  3:22.60 |     80512    |    95721     
          6  | 21:16.22 |  4:04.60 |     95722    |   114081     
          7  | 25:21.07 |  4:16.40 |    114082    |   133321     
          8  | 29:37.47 |  4:30.63 |    133322    |   153634     
          9  | 34:08.35 |  3:36.45 |    153635    |   169879     

Range status and errors

Selected range

       Filename C:\Ministry - With Sympathy.by.rat.eac.ape.covers.Israel-club.my1.ru\Ministry - With Sympathy.by.rat.eac.ape.covers.Israel-club.my1.ru.wav

       Peak level 94.7 %
       Range quality 100.0 %
       Copy CRC 0CE7DE76
       Copy OK

No errors occurred

End of status report

My WebPage

Category: Alternative | Views: 355 | Added by: Rat | Rating: 0.0/0
Total comments: 0
Only registered users can add comments.
[ Registration | Login ]

«  July 2010  »
SuMoTuWeThFrSa
    123
45678910
11121314151617
18192021222324
25262728293031


  • Israel-club.my1.ru


  • Copyright MyCorp © 2017