Friday, 23.06.2017, 19:05
Welcome Guest | RSS
Main
Registration
Login




Vinyl [7]
Alternative [103]
Jazz [26]
Classic rock [179]
Classical [9]
Hard & Heavy [60]
Mainstream [53]
Hip-Hop [3]
Meditative [11]
New Beats [8]
Progressive [38]
Roots [25]
OST, Campilation [28]
DTS Releases [4]
Dvd Rip [7]
DVD [7]
Lossless HTTP [54]

Rate my site
Total of answers: 17


Total online: 1
Guests: 1
Users: 0

Login form

Main » 2010 » July » 5 » Horrorpops - Kiss Kiss Kill Kill (2008)
21:59
Horrorpops - Kiss Kiss Kill Kill (2008)

Artist: Horrorpops
Album: Kiss Kiss Kill Kill
Released: 2008
Genre: rpunk
Format: eac.ape covers

Quote
You know how it goes: a band you never heard of, you stumble across a previous release and it knocks your socks off. Quick what else have they done? YES! They had an even earlier CD! You snap that up and it's great.
And...then...you...wait...and...wait...for...the...next....cd.
Finally it's coming out and the anticipation builds. It comes in the mail from Amazon and you're afraid to listen to it. Here's one of your favorite bands and you've been burned before under this circumstance (I'll never forgive Good Riddance for their final studio release).
Not to worry. Kim is even better on guitar, Patricia's vocals are perfect for these songs and the songs themselves are more varied in their themes. There's still the requisite creepy selection (Hitchcock Starlet & Highway 55 are spooky) and Horror Beach Pt. II is even better than it's predecessor.
Each listen reveals more about each song and you can just see the go-go dancers from their stage show bopping along to the rhythm.

01. Thelm & Louise [0:03:18.32]
02. MissFit [0:02:58.13]
03. Boot2Boot [0:03:13.12]
04. Heading For The Disco? [0:02:46.18]
05. Kiss Kiss Kill Kill [0:03:55.62]
06. Everything's Everything [0:04:08.00]
07. Hitchock Starlet [0:03:24.35]
08. Highway55 [0:03:38.53]
09. HorrorBeach Pt. ll [0:03:08.20]
10. Copenhagen Refugee [0:03:29.42]
11. Keep My Picture! [0:03:36.33]
12. Private Hall Of Shame [0:03:01.53]

Code
Exact Audio Copy V0.99 prebeta 3 from 28. July 2007

EAC extraction logfile from 11. May 2008, 20:19

Horrorpops / Kiss Kiss Kill Kill

Used drive  : Optiarc DVD RW AD-7170A   Adapter: 1  ID: 0

Read mode               : Secure
Utilize accurate stream : Yes
Defeat audio cache      : Yes
Make use of C2 pointers : No

Read offset correction                      : 48
Overread into Lead-In and Lead-Out          : No
Fill up missing offset samples with silence : Yes
Delete leading and trailing silent blocks   : No
Null samples used in CRC calculations       : Yes
Used interface                    : Installed external ASPI interface

Used output format : Internal WAV Routines
Sample format      : 44.100 Hz; 16 Bit; Stereo

TOC of the extracted CD

       Track |   Start  |  Length  | Start sector | End sector   
      ---------------------------------------------------------
          1  |  0:00.00 |  3:18.32 |         0    |    14881     
          2  |  3:18.32 |  2:58.13 |     14882    |    28244     
          3  |  6:16.45 |  3:13.12 |     28245    |    42731     
          4  |  9:29.57 |  2:46.18 |     42732    |    55199     
          5  | 12:16.00 |  3:55.62 |     55200    |    72886     
          6  | 16:11.62 |  4:08.00 |     72887    |    91486     
          7  | 20:19.62 |  3:24.35 |     91487    |   106821     
          8  | 23:44.22 |  3:38.53 |    106822    |   123224     
          9  | 27:23.00 |  3:08.20 |    123225    |   137344     
         10  | 30:31.20 |  3:29.42 |    137345    |   153061     
         11  | 34:00.62 |  3:36.33 |    153062    |   169294     
         12  | 37:37.20 |  3:01.53 |    169295    |   182922     

Range status and errors

Selected range

       Filename C:\Horrorpops - Kiss Kiss Kill Kill.by.rat.eac.ape.covers.Israel-club.my1.ru\Horrorpops - Kiss Kiss Kill Kill.by.rat.eac.ape.covers.Israel-club.my1.ru.wav

       Peak level 100.0 %
       Range quality 100.0 %
       Copy CRC C8B344D9
       Copy OK

No errors occurred

End of status report

My WebPage

Category: Alternative | Views: 204 | Added by: Rat | Rating: 0.0/0
Total comments: 0
Only registered users can add comments.
[ Registration | Login ]

«  July 2010  »
SuMoTuWeThFrSa
    123
45678910
11121314151617
18192021222324
25262728293031


  • Israel-club.my1.ru


  • Copyright MyCorp © 2017