Friday, 22.09.2017, 13:42
Welcome Guest | RSS
Main
Registration
Login




Vinyl [7]
Alternative [103]
Jazz [26]
Classic rock [179]
Classical [9]
Hard & Heavy [60]
Mainstream [53]
Hip-Hop [3]
Meditative [11]
New Beats [8]
Progressive [38]
Roots [25]
OST, Campilation [28]
DTS Releases [4]
Dvd Rip [7]
DVD [7]
Lossless HTTP [54]

Rate my site
Total of answers: 17


Total online: 1
Guests: 1
Users: 0

Login form

Main » 2010 » July » 5 » Diary Of Dreams - Nekrolog 43 (2007)
22:36
Diary Of Dreams - Nekrolog 43 (2007)

Artist: Diary Of Dreams
Album: Nekrolog 43
Released: 2007
Genre: Industrial Dance
Format: eac.ape.covers

Quote
The German gothic/darkwave group Diary Of Dreams began in the late '80s as the side-project of singer/songwriter Aidan Hates, who at the time was also a member of the similarly-minded Garden Of Delight. Hates collaborated with guitarist Alistair Kane on Diary Of Dreams' first album, 1994's Cholymelan. Two years later, the duo returned with End Of Flowers, which they released on Hates' Accession label. 1997 saw the release of Bird Without Wings and increasing popularity for the group; by 1998 they had released another album Psychoma? and added two band members, Olaf Schaning and Christian Berghoff. A best-of collection, Moments Of Bloom, arrived the following year and became Diary Of Dream's first domestically released album in the US; One of 18 Angels followed in early 2000.

CD:

01. 01 Nekrolog 43 [0:07:02.54]
02. 02 the Plague [0:04:55.45]
03. 03 Son of a thief [0:05:31.16]
04. 04 Tears of Joy [0:05:21.18]
05. 05 UnWanted [0:04:18.70]
06. 06 Matching Lives [0:06:59.70]
07. 07 Remedy Child [0:04:56.73]
08. 08 Malice [0:05:10.44]
09. 09 The darkest of all hours [0:04:19.15]
10. 10 Congratulations [0:06:41.60]
11. 11 hypo)crypticK(al [0:05:37.32]
12. 12 alLone [0:04:08.14]
13. 13 the Valley [0:06:42.60]

Code
Exact Audio Copy V0.99 prebeta 3 from 28. July 2007

EAC extraction logfile from 21. May 2008, 21:03

Diary Of Dreams / Nekrolog 43

Used drive  : TSSTcorpCD/DVDW SH-W162L   Adapter: 1  ID: 1

Read mode               : Secure
Utilize accurate stream : Yes
Defeat audio cache      : Yes
Make use of C2 pointers : No

Read offset correction                      : 6
Overread into Lead-In and Lead-Out          : No
Fill up missing offset samples with silence : Yes
Delete leading and trailing silent blocks   : No
Null samples used in CRC calculations       : Yes
Used interface                    : Installed external ASPI interface

Used output format : Internal WAV Routines
Sample format      : 44.100 Hz; 16 Bit; Stereo

TOC of the extracted CD

       Track |   Start  |  Length  | Start sector | End sector   
      ---------------------------------------------------------
          1  |  0:00.00 |  7:02.54 |         0    |    31703     
          2  |  7:02.54 |  4:55.45 |     31704    |    53873     
          3  | 11:58.24 |  5:31.16 |     53874    |    78714     
          4  | 17:29.40 |  5:21.18 |     78715    |   102807     
          5  | 22:50.58 |  4:18.70 |    102808    |   122227     
          6  | 27:09.53 |  6:59.70 |    122228    |   153722     
          7  | 34:09.48 |  4:56.73 |    153723    |   175995     
          8  | 39:06.46 |  5:10.44 |    175996    |   199289     
          9  | 44:17.15 |  4:19.15 |    199290    |   218729     
         10  | 48:36.30 |  6:41.60 |    218730    |   248864     
         11  | 55:18.15 |  5:37.32 |    248865    |   274171     
         12  | 60:55.47 |  4:08.14 |    274172    |   292785     
         13  | 65:03.61 |  6:42.60 |    292786    |   322995     

Range status and errors

Selected range

       Filename C:\Diary.Of.Dreams.-.Nekrolog.43.by.rat.eac.ape.covers.Israel-club.my1.ru\Diary.Of.Dreams.-.Nekrolog.43.by.rat.eac.ape.covers.Israel-club.my  1.ru.wav

       Peak level 97.5 %
       Range quality 100.0 %
       Copy CRC D5AC6DDA
       Copy OK

No errors occurred

End of status report

My WebPage

Category: Alternative | Views: 336 | Added by: Rat | Rating: 0.0/0
Total comments: 0
Only registered users can add comments.
[ Registration | Login ]

«  July 2010  »
SuMoTuWeThFrSa
    123
45678910
11121314151617
18192021222324
25262728293031


  • Israel-club.my1.ru


  • Copyright MyCorp © 2017