Saturday, 19.08.2017, 13:15
Welcome Guest | RSS
Main
Registration
Login




Vinyl [7]
Alternative [103]
Jazz [26]
Classic rock [179]
Classical [9]
Hard & Heavy [60]
Mainstream [53]
Hip-Hop [3]
Meditative [11]
New Beats [8]
Progressive [38]
Roots [25]
OST, Campilation [28]
DTS Releases [4]
Dvd Rip [7]
DVD [7]
Lossless HTTP [54]

Rate my site
Total of answers: 17


Total online: 1
Guests: 1
Users: 0

Login form

Main » 2010 » July » 15 » Adam and the Ants - Dirk Wears White Sox (remastered) (1979)
18:44
Adam and the Ants - Dirk Wears White Sox (remastered) (1979)

Label: Edsel Records
Format: EAC-APE
Country: UK
Released: 2004
Genre: PUNK/POST PUNK
Total Size: 448mb

Quote
FANTASTIC! And, at last!! This remastered reissue finally gives us Dirk Wears White Sox on CD; all the original songs in their correct order. The mastering retains the dynamics of the original mixes much better than the earlier CD version on Sony/Columbia's Rewind imprint (and sounds infinitely better than the American version with the color cover). It has much of the musical feel of the original vinyl; other reissues just didn't - pardon the pun - 'do it' for me. There are some great photos, and the graphics are all very crisp. The only thing that I've found to complain about is that they failed to really nail the definitive version of the Antmusic EP (aka "the B-sides") in the bonus tracks -- the version of Kick that appears here is an alternate mix or something. It's inclusion is interesting as an obscure track, but the version that appeared on the original vinyl is unquestionably superior. The real bummer about this is that the only other place where Kick appears on CD is on "In Bondage", and the quality there is disappointing... But anyway, I can't express what a joy this CD is to have and hold! If you're curious, really, there's no reason not to buy a copy of this album. It's a real gem.


01. Cartrouble (Parts 1 & 2) [0:06:51.53]
02. Digital Tenderness [0:03:03.61]
03. Nine Plan Failed [0:05:18.25]
04. Day I Met God [0:02:58.33]
05. Tabletalk [0:05:34.50]
06. Cleopatra [0:03:15.12]
07. Catholic Day [0:03:08.23]
08. Never Trust a Man (With Egg on His Face) [0:03:13.55]
09. Animals and Men [0:03:20.20]
10. Family of Noise [0:02:36.57]
11. The Idea [0:03:26.20]
12. Zerox [0:03:48.13]
13. Whip in My Valise [0:04:00.62]
14. Kick [0:01:37.00]
15. Physical [0:03:59.25]
16. Cartrouble (Parts 1 & 2) [0:06:36.58]
17. Friends [0:02:40.25]
18. Cartrouble [single version] [0:03:24.50]
19. Kick! [0:02:06.36]

Code
Exact Audio Copy V0.99 prebeta 3 from 28. July 2007

EAC extraction logfile from 24. October 2008, 22:04

Adam and the Ants / Dirk Wears White Sox

Used drive  : TSSTcorpCD/DVDW SH-W162L   Adapter: 3  ID: 1

Read mode               : Secure
Utilize accurate stream : Yes
Defeat audio cache      : Yes
Make use of C2 pointers : No

Read offset correction                      : 6
Overread into Lead-In and Lead-Out          : No
Fill up missing offset samples with silence : Yes
Delete leading and trailing silent blocks   : No
Null samples used in CRC calculations       : Yes
Used interface                    : Installed external ASPI interface

Used output format : Internal WAV Routines
Sample format      : 44.100 Hz; 16 Bit; Stereo

TOC of the extracted CD

       Track |   Start  |  Length  | Start sector | End sector   
      ---------------------------------------------------------
          1  |  0:00.00 |  6:51.53 |         0    |    30877     
          2  |  6:51.53 |  3:03.61 |     30878    |    44663     
          3  |  9:55.39 |  5:18.25 |     44664    |    68538     
          4  | 15:13.64 |  2:58.33 |     68539    |    81921     
          5  | 18:12.22 |  5:34.50 |     81922    |   107021     
          6  | 23:46.72 |  3:15.12 |    107022    |   121658     
          7  | 27:02.09 |  3:08.23 |    121659    |   135781     
          8  | 30:10.32 |  3:13.55 |    135782    |   150311     
          9  | 33:24.12 |  3:20.20 |    150312    |   165331     
         10  | 36:44.32 |  2:36.57 |    165332    |   177088     
         11  | 39:21.14 |  3:26.20 |    177089    |   192558     
         12  | 42:47.34 |  3:48.13 |    192559    |   209671     
         13  | 46:35.47 |  4:00.62 |    209672    |   227733     
         14  | 50:36.34 |  1:37.00 |    227734    |   235008     
         15  | 52:13.34 |  3:59.25 |    235009    |   252958     
         16  | 56:12.59 |  6:36.58 |    252959    |   282716     
         17  | 62:49.42 |  2:40.25 |    282717    |   294741     
         18  | 65:29.67 |  3:24.50 |    294742    |   310091     
         19  | 68:54.42 |  2:06.36 |    310092    |   319577     

Range status and errors

Selected range

       Filename C:\Adam.and.the.Ants.-.Dirk.Wears.White.Sox.rem.by.rat.eac.ape.Israel-club.my1.ru\Adam.and.the.Ants.-.Dirk.Wears.White.Sox.rem.by.rat.eac.ap  e.Israel-club.my1.ru.wav

       Peak level 97.7 %
       Range quality 99.9 %
       Copy CRC E50E7D9A
       Copy OK

No errors occurred

End of status report

DOWNLOAD
Category: Alternative | Views: 318 | Added by: Rat | Rating: 0.0/0
Total comments: 0
Only registered users can add comments.
[ Registration | Login ]

«  July 2010  »
SuMoTuWeThFrSa
    123
45678910
11121314151617
18192021222324
25262728293031


  • Israel-club.my1.ru


  • Copyright MyCorp © 2017