Tuesday, 22.08.2017, 03:39
Welcome Guest | RSS
Main
Registration
Login




Vinyl [7]
Alternative [103]
Jazz [26]
Classic rock [179]
Classical [9]
Hard & Heavy [60]
Mainstream [53]
Hip-Hop [3]
Meditative [11]
New Beats [8]
Progressive [38]
Roots [25]
OST, Campilation [28]
DTS Releases [4]
Dvd Rip [7]
DVD [7]
Lossless HTTP [54]

Rate my site
Total of answers: 17


Total online: 1
Guests: 1
Users: 0

Login form

Main » 2010 » August » 21 » Accept - Blood Of The Nations(Limited Edtion.Dg.pack) (2010)
11:38
Accept - Blood Of The Nations(Limited Edtion.Dg.pack) (2010)

Artist:Accept
Album: Blood Of The Nations
Format:EAC APE
Genre: Heavy Metal
Label: Nuclear Blast Records

Code
ACCEPT - the brandnew album - out now!

ACCEPT – Blood Of The Nations” – OUT NOW IN EUROPE!!!

What an adventure THAT was…. 24 hours of news and excitement. The Marathon is over, but we are just getting started…. BLOOD OF THE NATIONS….. ACCEPT 2010

Deville's THANK YOU List

Flo, Sebastian, Petra, Martina, Karl und Mannix von Brainstorm für das harte Schuften für ACCEPT und den einmaligen MARATHON!!!

Andy Siry, Markus Steiger und das ganze Nuclear Blast Team around the globus für den Glauben an die Band und den unheimlichen Einsatz.

Nobby Okumura from Universal Japan and Onta from Creative Man Japan for make JAPAN happen.

Gerald Wilkes, Jörg Michael und Werner Stockinger für die geilen Shows der Warm Up Tour, sowie mit AC/DC und Sonisphere Festivals

Markus Zieris our IT Superman
Götz Kühnemund
Olavi Mikkonen from AMON AMARTH for your great help
Sat Bisla from A&R Worldwide and Musexpo Los Angeles for your international help

Gaby's THANK YOU List

First and foremost to TRUDY & PETER MEISEL…without them … I would not be the one I am and 2 other very important Influences in my life: MICHAEL ANDERS & AKI MORISHITA. There were many others and they all became part of MY life…..some are still with me, others have left ….but they are all dear to me!

We could not have hoped for that, dreamed of that… but it happened! Unexpected friends came to us recently:

All the wonderful people at
NUCLEAR BLAST GERMANY
NUCLEAR BLAST USA
CHIPSTER PR
UNIVERSAL JAPAN
AND OF COURSE – OUR BELOVED MANAGEMENT COMPANY BRAINSTORM

AND…. EVERYBODY AT BRAINSTORM – THANK YOU FOR THE ONE AND ONLY ACCEPT MARATHON!!!

Thank you for making our life on the road what it is — wonderful! FRANK TRZASKOWSKI & MARK NEWMAN, DAVID BRANCH & MIKE KENNEDY

The ones who are not mentioned … you know who you are! We love you!
ANDY SNEAP, Ed Aborn, Tammy Aborn, Adam Sagir, Adrian Begrand, Andre Selleneit, Andreas Mautner, Andreas Schoewe, April & Dale Addy, Armando Encinas, Arndt Peltner, Axel Knigge, Bernd Gockel, Dirk Baldringer, Baoquin Wang, Thomas Barnett, Barry Bachrach, Ben Pearson, Bernard Omondi, Bob Donnelly, Bogdan Kopec, Bora Kirca, Krgin Borivoj, Melo Mafali, David&Carolyn Corlew, Carolyn Perry, Chuck & Marnie Creasy, Christian McKnight, Chris Leibundgut, Chip Ruggieri, Christoph Wanner, Vance Clay, Dan Spitz, Daniel Berg, Dante Benutto, Dave Blass, David Mortimer-Hawkins, Dean Dawkins, James & Mary Scudder, Dieter & Micky Roesberg, Doris Charon, Doug Jeffrey, Doug Thaler, EddieTrunk, Elke Levy, Eric Sanders, Frank Untermyer, Fred Hoock, Gaby Karstaedt, Gary Marks, George Glueck, Gerald Wilkes and all the girls at CC, Ghislain Arsenault, Goetz Kuehnemund, H. P. Schulenberg, Hanne Jordan, Heinz Henn, Olavi Mikkonen, Michael Spiess, Martin Hack, Humberto & Julia Cordeiro, Irfan & Veronica Berk, Jan Koemmet, Jeff Waters, Jerry Nordlund, Joe Schlared, Johannes Kraus, Ostendorf & Crew, John & Rebecca Strednansky, Jonathan Richter, Kai Mahnke, Andreas Kassner, Ken Mary, Las Goeran Hansen, Lyle Gudmunsen, Magnus Rosen, Malcolm Dome, Marc Whitaker, Marcel DeVre, Marcel Avram, Peter Marchlewitz, Marek Lieberberg, Mark Hyman, Mark Tucker, Mark Weiss, Markus Zieris, Matthias Mineur, Mel Tyler, Michael Cartellone, Joerg Michael, Michael Mellenthin, Monte Conner, Naomi Ohno, Nat Komes, Nelson Lopez, Nobby Okumura, Onta, Wendy Dio, Norbert Mandel, Olaf Tost, Ossy Hoppe, Peter Brandt, Fritz Rau, Peter Wolf, Bea Pirok, Bryan Reesman, Rich Ward, Rod MacSween, Roger Parent, Serge Patist, Silke Yli-Sirnioe, Stan Havard, Thomas Mengel, Oliver Roehricht, Tony Baker, Tony Pijar, Sandy Tower, Brett &Trisha Sahler, Edgar Kluesener, Werner Stockinger, Whitney Wright, BAT YE'OR, DJWill, Uschi Kaisig, Juergen Wigginghaus,

AND ……. ACCEPT IS THANKING ALL OF YOU!!!!

01. Beat The Bastards [0:05:24.56]
02. Teutonic Terror [0:05:13.44]
03. The Abyss [0:06:53.46]
04. Blood Of The Nations [0:05:37.67]
05. Shades Of Death [0:07:32.40]
06. Locked And Loaded [0:04:28.62]
07. Time Machine [0:05:24.42]
08. Kill The Pain [0:05:47.21]
09. Rolling Thunder [0:04:54.13]
10. Pandemic [0:05:36.20]
11. New World Comin' [0:04:50.58]
12. No Shelter [0:06:04.05]
13. Bucket Full Of Hate [0:05:09.47]

Code
Exact Audio Copy V0.99 prebeta 4 from 23. January 2008

EAC extraction logfile from 20. August 2010, 11:25

Accept / Blood Of The Nations

Used drive  : Optiarc DVD RW AD-7170A   Adapter: 3  ID: 0

Read mode               : Secure
Utilize accurate stream : Yes
Defeat audio cache      : Yes
Make use of C2 pointers : No

Read offset correction                      : 48
Overread into Lead-In and Lead-Out          : No
Fill up missing offset samples with silence : Yes
Delete leading and trailing silent blocks   : No
Null samples used in CRC calculations       : Yes
Used interface                    : Installed external ASPI interface

Used output format : Internal WAV Routines
Sample format      : 44.100 Hz; 16 Bit; Stereo

TOC of the extracted CD

        Track |   Start  |  Length  | Start sector | End sector    
       ---------------------------------------------------------
           1  |  0:00.00 |  5:24.56 |         0    |    24355      
           2  |  5:24.56 |  5:13.44 |     24356    |    47874      
           3  | 10:38.25 |  6:53.46 |     47875    |    78895      
           4  | 17:31.71 |  5:37.67 |     78896    |   104237      
           5  | 23:09.63 |  7:32.40 |    104238    |   138177      
           6  | 30:42.28 |  4:28.62 |    138178    |   158339      
           7  | 35:11.15 |  5:24.42 |    158340    |   182681      
           8  | 40:35.57 |  5:47.21 |    182682    |   208727      
           9  | 46:23.03 |  4:54.13 |    208728    |   230790      
          10  | 51:17.16 |  5:36.20 |    230791    |   256010      
          11  | 56:53.36 |  4:50.58 |    256011    |   277818      
          12  | 61:44.19 |  6:04.05 |    277819    |   305123      
          13  | 67:48.24 |  5:09.47 |    305124    |   328345      

Range status and errors

Selected range

        Filename C:\Documents and Settings\Мои документы\Accept - Blood Of The Nations.Limited Edtion..ape.covers.by.rat.lossless-muz.ucoz.com\Accept - Blood Of The Nations.Limited Edtion..ape.covers.by.rat.lossless-muz.ucoz.wav

        Peak level 98.8 %
        Range quality 99.9 %
        Copy CRC 28220454
        Copy OK

No errors occurred

End of status report

Download

Category: Hard & Heavy | Views: 663 | Added by: Rat | Rating: 0.0/0
Total comments: 0
Only registered users can add comments.
[ Registration | Login ]

«  August 2010  »
SuMoTuWeThFrSa
1234567
891011121314
15161718192021
22232425262728
293031


  • Israel-club.my1.ru


  • Copyright MyCorp © 2017