Sunday, 22.10.2017, 08:31
Welcome Guest | RSS
Main
Registration
Login




Vinyl [7]
Alternative [103]
Jazz [26]
Classic rock [179]
Classical [9]
Hard & Heavy [60]
Mainstream [53]
Hip-Hop [3]
Meditative [11]
New Beats [8]
Progressive [38]
Roots [25]
OST, Campilation [28]
DTS Releases [4]
Dvd Rip [7]
DVD [7]
Lossless HTTP [54]

Rate my site
Total of answers: 17


Total online: 1
Guests: 1
Users: 0

Login form

Main » 2010 » February » 7 » YELLO - Touch Yello (2009)
13:03
YELLO - Touch Yello (2009)

Label: Universal Records
Source: CD, Album
Release date: 2009
Quality: flac / lossless
Size: 365 MB
Style: Synthpop

Quote
Yello's sound is mainly characterized by unusual music samples, a heavy reliance on rhythm and Dieter Meier's dark voice. Boris Blank has taken a couple of vocal turns; on "Swing" (from You Gotta Say Yes to Another Excess) and "Blazing Saddles" (from Flag), and guest vocalists have included Rush Winters (the first female diva to be featured on a Yello recording), Billy MacKenzie, Stina Nordenstam, Jade Davies and Shirley Bassey. The group has shared writing credit with MacKenzie and Winters. Yello rarely uses samples from previously released music; nearly every instrument has been sampled and engineered by Boris Blank, who over the years has built up an original sample library of over 100,000 named and categorized sounds.[5]

The music is composed by Boris Blank, who considers himself a perfectionist. When the tracks are mostly finished, Dieter Meier adds the vocal parts when fitting.

01. The Expert [0:02:54.50]
02. You Better Hide (featuring Heidi Happy) [0:04:08.00]
03. Out Of Dawn [0:03:10.67]
04. Bostich (Reflected) [0:03:57.15]
05. Till Tomorrow (featuring Till Broenner) [0:04:16.30]
06. Tangier Blue [0:02:39.48]
07. Part Love [0:03:43.02]
08. Friday Smile [0:03:30.70]
09. Kiss In Blue (featuring Heidi Happy) [0:03:33.65]
10. Vertical Vision (featuring Till Broenner) [0:04:19.48]
11. Trackless Deep [0:03:19.30]
12. Stay (featuring Heidi Happy) [0:03:02.60]
13. Electric Frame (featuring Till Broenner) [0:03:35.65]
14. Takla Makan (featuring Dorothee Oberlinger) [0:08:35.60]

Code
Exact Audio Copy V0.99 prebeta 4 from 23. January 2008

EAC extraction logfile from 6. February 2010, 12:15

YELLO / Touch Yello

Used drive  : TSSTcorpCD/DVDW SH-W162L   Adapter: 3  ID: 1

Read mode               : Secure
Utilize accurate stream : Yes
Defeat audio cache      : Yes
Make use of C2 pointers : No

Read offset correction                      : 6
Overread into Lead-In and Lead-Out          : No
Fill up missing offset samples with silence : Yes
Delete leading and trailing silent blocks   : No
Null samples used in CRC calculations       : Yes
Used interface                    : Installed external ASPI interface

Used output format : Internal WAV Routines
Sample format      : 44.100 Hz; 16 Bit; Stereo

TOC of the extracted CD

       Track |   Start  |  Length  | Start sector | End sector   
      ---------------------------------------------------------
          1  |  0:00.00 |  2:54.50 |         0    |    13099     
          2  |  2:54.50 |  4:08.00 |     13100    |    31699     
          3  |  7:02.50 |  3:10.67 |     31700    |    46016     
          4  | 10:13.42 |  3:57.15 |     46017    |    63806     
          5  | 14:10.57 |  4:16.30 |     63807    |    83036     
          6  | 18:27.12 |  2:39.48 |     83037    |    95009     
          7  | 21:06.60 |  3:43.02 |     95010    |   111736     
          8  | 24:49.62 |  3:30.70 |    111737    |   127556     
          9  | 28:20.57 |  3:33.65 |    127557    |   143596     
         10  | 31:54.47 |  4:19.48 |    143597    |   163069     
         11  | 36:14.20 |  3:19.30 |    163070    |   178024     
         12  | 39:33.50 |  3:02.60 |    178025    |   191734     
         13  | 42:36.35 |  3:35.65 |    191735    |   207924     
         14  | 46:12.25 |  8:35.60 |    207925    |   246609     

Range status and errors

Selected range

       Filename C:\Documents and Settings\Мои документы\YELLO - Touch Yello.flac.covers.by.rat.lossless-muz.ucoz.com\YELLO - Touch Yello.flac.covers.by.rat.lossless-muz.ucoz.wav

       Peak level 97.7 %
       Range quality 100.0 %
       Copy CRC F52B7F62
       Copy OK

No errors occurred

End of status report

DOWNLOAD


 

Category: Mainstream | Views: 338 | Added by: Rat | Rating: 0.0/0
Total comments: 0
Only registered users can add comments.
[ Registration | Login ]

«  February 2010  »
SuMoTuWeThFrSa
 123456
78910111213
14151617181920
21222324252627
28


  • Israel-club.my1.ru


  • Copyright MyCorp © 2017