Friday, 23.06.2017, 22:51
Welcome Guest | RSS
Main
Registration
Login




Vinyl [7]
Alternative [103]
Jazz [26]
Classic rock [179]
Classical [9]
Hard & Heavy [60]
Mainstream [53]
Hip-Hop [3]
Meditative [11]
New Beats [8]
Progressive [38]
Roots [25]
OST, Campilation [28]
DTS Releases [4]
Dvd Rip [7]
DVD [7]
Lossless HTTP [54]

Rate my site
Total of answers: 17


Total online: 1
Guests: 1
Users: 0

Login form

Main » 2010 » February » 5 » Yanni - Live at The Acropolis (1994)
23:13
Yanni - Live at The Acropolis (1994)

Album: Yanni
Artist: Live at The Acropolis
Source: BMG
Realease: 1994
Genre: New Age
Quality: eac-ape-covers

Quote

It's no surprise that Yanni is most identified with this amazingly powerful experience (also presented as one of PBS' most popular concerts ever), because it seems like the musical project he was most destined to make. After making millions stateside, he returns to the historic ancient Acropolis of his Greek homeland to share his sweeping music with his countrymen. One of the most impressive aspects of Yanni in this live setting is the way his beautiful piano passages blend with the occasional boom of the Royal Philharmonic Orchestra (conducted by Shardad Rohani). Whereas it's easy to complain that his studio recordings are over-reliant on synthesized strings, here it's the real deal. "Santorini" epitomizes the musical balance, opening with several minutes of percussive string fanfare, then allowing Yanni to be simply expressive on the acoustic piano as the orchestra tones down and provides a caress of accompaniment. "Until the Last Moment" flows along tenderly with the same effect. Even songs like "Keys to the Imagination," which are played on synth, are taken to more emotional levels with the dramatic swells of the orchestra. The concert features its share of familiar tunes ("Swept Away," "Reflections of Passion"), but surprises in spots with more drawn out, thoughtful dishes of exotica like "Acroval/Standing in Motion," which begins with atmosphere and chime effects, then evolves into an adventurous orchestral and synth explosion more ambitious than anything Yanni has attempted on his studio recordings. The sticker on the original disc release also informs listeners that it's recorded in 48-track digital sound. The same sticker calls it the event of a lifetime. It's an amazing concert, but more the core event of Yanni's life and career than anyone listening to this recording.

01. Santorini [0:06:58.15]
02. Keys to Imagination [0:07:34.25]
03. Until The Last Moment [0:06:37.37]
04. The Rain Must Fall [0:07:24.53]
05. Acroyali-/ Standing in Motion [Medley] [0:08:51.02]
06. One Man's Dream [0:03:35.35]
07. Within Attraction [0:07:47.08]
08. Nostalgia [0:05:46.02]
09. Swept Away [0:09:21.38]
10. Reflections of Passion [0:05:03.02]
11. Aria [0:04:03.58]

Code
Exact Audio Copy V0.99 prebeta 3 from 28. July 2007

EAC extraction logfile from 25. September 2007, 12:28

Yanni / Live at The Acropolis

Used drive  : TSSTcorpCD/DVDW SH-W162L   Adapter: 1  ID: 1

Read mode               : Secure
Utilize accurate stream : Yes
Defeat audio cache      : Yes
Make use of C2 pointers : No

Read offset correction                      : 6
Overread into Lead-In and Lead-Out          : No
Fill up missing offset samples with silence : Yes
Delete leading and trailing silent blocks   : No
Null samples used in CRC calculations       : Yes
Used interface                    : Installed external ASPI interface

Used output format : Internal WAV Routines
Sample format      : 44.100 Hz; 16 Bit; Stereo

TOC of the extracted CD

       Track |   Start  |  Length  | Start sector | End sector   
      ---------------------------------------------------------
          1  |  0:00.33 |  6:58.15 |        33    |    31397     
          2  |  6:58.48 |  7:34.25 |     31398    |    65472     
          3  | 14:32.73 |  6:37.37 |     65473    |    95284     
          4  | 21:10.35 |  7:24.53 |     95285    |   128637     
          5  | 28:35.13 |  8:51.02 |    128638    |   168464     
          6  | 37:26.15 |  3:35.35 |    168465    |   184624     
          7  | 41:01.50 |  7:47.08 |    184625    |   219657     
          8  | 48:48.58 |  5:46.02 |    219658    |   245609     
          9  | 54:34.60 |  9:21.38 |    245610    |   287722     
         10  | 63:56.23 |  5:03.02 |    287723    |   310449     
         11  | 68:59.25 |  4:03.58 |    310450    |   328732     

Range status and errors

Selected range

       Filename C:\Yanni - Live at The Acropolis.by.rat.eac-ape.Hq.covers\Yanni - Live at The Acropolis.by.rat.eac-ape.Hq.covers.wav

       Peak level 100.0 %
       Range quality 100.0 %
       Copy CRC 4CFE145F
       Copy OK

No errors occurred

End of status report

YANNI

Category: Meditative | Views: 350 | Added by: Rat | Rating: 0.0/0
Total comments: 0
Only registered users can add comments.
[ Registration | Login ]

«  February 2010  »
SuMoTuWeThFrSa
 123456
78910111213
14151617181920
21222324252627
28


  • Israel-club.my1.ru


  • Copyright MyCorp © 2017