Monday, 20.11.2017, 13:34
Welcome Guest | RSS
Main
Registration
Login




Vinyl [7]
Alternative [103]
Jazz [26]
Classic rock [179]
Classical [9]
Hard & Heavy [60]
Mainstream [53]
Hip-Hop [3]
Meditative [11]
New Beats [8]
Progressive [38]
Roots [25]
OST, Campilation [28]
DTS Releases [4]
Dvd Rip [7]
DVD [7]
Lossless HTTP [54]

Rate my site
Total of answers: 17


Total online: 1
Guests: 1
Users: 0

Login form

Main » 2011 » July » 29 » Weather Report - Weather Report (1971)
16:51
Weather Report - Weather Report (1971)
 

Артист: Weather Report 
Альбом: Weather Report, 1971 
Издатель: Columbia / 4682122 
Жанр: Jazz 
Релиз- taurus66
 
Code
Exact Audio Copy V1.0 beta 1 from 15. November 2010 

EAC extraction logfile from 26. March 2011, 13:24 

Weather Report / Weather Report 

Used drive : HL-DT-STDVDRAM GH22NS40 Adapter: 2 ID: 1 

Read mode : Secure 
Utilize accurate stream : Yes 
Defeat audio cache : Yes 
Make use of C2 pointers : No 

Read offset correction : 667 
Overread into Lead-In and Lead-Out : No 
Fill up missing offset samples with silence : Yes 
Delete leading and trailing silent blocks : No 
Null samples used in CRC calculations : Yes 
Used interface : Installed external ASPI interface 

Used output format : User Defined Encoder 
Selected bitrate : 1024 kBit/s 
Quality : High 
Add ID3 tag : No 
Command line compressor : C:\Program Files\Exact Audio Copy\wavpack.exe 
Additional command line options : -hlmx2 %s 

TOC of the extracted CD 

Track | Start | Length | Start sector | End sector  
--------------------------------------------------------- 
1 | 0:00.00 | 2:33.05 | 0 | 11479  
2 | 2:33.05 | 3:27.22 | 11480 | 27026  
3 | 6:00.27 | 5:22.43 | 27027 | 51219  
4 | 11:22.70 | 8:43.35 | 51220 | 90479  
5 | 20:06.30 | 4:26.07 | 90480 | 110436  
6 | 24:32.37 | 6:19.70 | 110437 | 138931  
7 | 30:52.32 | 3:25.23 | 138932 | 154329  
8 | 34:17.55 | 5:44.02 | 154330 | 180131  

Range status and errors 

Selected range 

Filename C:\lossless\Weather Report\Weather Report - Weather Report.wav 

Peak level 97.1 % 
Extraction speed 0.2 X 
Range quality 100.0 % 
Test CRC 1C5385DB 
Copy CRC 1C5385DB 
Copy OK 

No errors occurred 

AccurateRip summary 

Track 1 accurately ripped (confidence 2) [9E810E80] 
Track 2 accurately ripped (confidence 2) [95648440] 
Track 3 accurately ripped (confidence 2) [38AB8BE5] 
Track 4 accurately ripped (confidence 2) [9BAA4315] 
Track 5 accurately ripped (confidence 2) [4461811C] 
Track 6 accurately ripped (confidence 2) [8AD8D37E] 
Track 7 accurately ripped (confidence 2) [DAF6988F] 
Track 8 accurately ripped (confidence 2) [E80DC1F3] 

All tracks accurately ripped 

End of status report 

==== Log checksum CF309AF2BB91177319783FCC4729C8148BE0C3FEE6DA7AF4073A5C7A3923F154 ====


TRACKLIST 
1. Milky Way [0:02:33.05] 
2. Umbrellas [0:03:27.22] 
3. Seventh Arrow [0:05:22.43] 
4. Orange Lady [0:08:43.35] 
5. Morning Lake [0:04:26.07] 
6. Waterfall [0:06:19.70] 
7. Tears [0:03:25.23] 
8. Eurydice [0:05:44.02]
 

download
Category: Jazz | Views: 405 | Added by: Rat | Rating: 0.0/0
Total comments: 0
Only registered users can add comments.
[ Registration | Login ]

«  July 2011  »
SuMoTuWeThFrSa
     12
3456789
10111213141516
17181920212223
24252627282930
31


  • Israel-club.my1.ru


  • Copyright MyCorp © 2017