Monday, 26.06.2017, 19:27
Welcome Guest | RSS
Main
Registration
Login




Vinyl [7]
Alternative [103]
Jazz [26]
Classic rock [179]
Classical [9]
Hard & Heavy [60]
Mainstream [53]
Hip-Hop [3]
Meditative [11]
New Beats [8]
Progressive [38]
Roots [25]
OST, Campilation [28]
DTS Releases [4]
Dvd Rip [7]
DVD [7]
Lossless HTTP [54]

Rate my site
Total of answers: 17


Total online: 1
Guests: 1
Users: 0

Login form

Main » 2010 » March » 31 » Various Artists - Born to be Wild - Vol.2 (1995)
10:26
Various Artists - Born to be Wild - Vol.2 (1995)

Artist : Various Artists
Album : Born to be Wild - Vol.2
Record Label : Warner
Quality: Eac-ape
Genre : Hard'n'heavy
Year : 1995

Quote
18 GREAT CLASSIC ROCK SONGS BY ORIGINAL ARTISTS

01. Bachman-Turner OverDrive / You Ain't Seen Nothin' Yet [0:03:31.47]
02. Black Sabbath / Paranoid [0:02:49.00]
03. Alice Cooper / School's Out [0:03:29.15]
04. Argent / God Gave Rock And Roll To You [0:03:21.35]
05. Bad Company / Can't Get Enough [0:04:16.10]
06. Deep Purple / Strange Kind Of Woman [0:03:42.73]
07. Nazareth / This Flight Tonight [0:03:22.07]
08. Jethro Tull / Sweet Dream [0:03:55.25]
09. Hawkwind / Silver Machine [0:04:38.33]
10. Free / My Brother Jake [0:02:51.05]
11. Lynyrd Skynyrd / Free Bird [0:09:02.37]
12. Santana / She's Not There [0:03:13.20]
13. Ram Jam / Black Betty [0:04:00.53]
14. Chris Spedding / Motor Bikin' [0:02:36.17]
15. Ten Years After / Love Like A Man [0:03:05.55]
16. Wishbone Ash / Blowin' Free [0:05:19.15]
17. Focus / Sylvia [0:03:27.73]
18. Steppenwolf / Born To Be Wild [0:03:30.00]

Code
Exact Audio Copy V0.99 prebeta 3 from 28. July 2007

EAC extraction logfile from 14. November 2007, 11:30

Various / Born to be Wild - Vol.2

Used drive  : Optiarc DVD RW AD-7170A   Adapter: 1  ID: 0

Read mode               : Secure
Utilize accurate stream : Yes
Defeat audio cache      : Yes
Make use of C2 pointers : No

Read offset correction                      : 48
Overread into Lead-In and Lead-Out          : No
Fill up missing offset samples with silence : Yes
Delete leading and trailing silent blocks   : No
Null samples used in CRC calculations       : Yes
Used interface                    : Installed external ASPI interface

Used output format : Internal WAV Routines
Sample format      : 44.100 Hz; 16 Bit; Stereo

TOC of the extracted CD

       Track |   Start  |  Length  | Start sector | End sector   
      ---------------------------------------------------------
          1  |  0:00.00 |  3:31.47 |         0    |    15871     
          2  |  3:31.47 |  2:49.00 |     15872    |    28546     
          3  |  6:20.47 |  3:29.15 |     28547    |    44236     
          4  |  9:49.62 |  3:21.35 |     44237    |    59346     
          5  | 13:11.22 |  4:16.10 |     59347    |    78556     
          6  | 17:27.32 |  3:42.73 |     78557    |    95279     
          7  | 21:10.30 |  3:22.07 |     95280    |   110436     
          8  | 24:32.37 |  3:55.25 |    110437    |   128086     
          9  | 28:27.62 |  4:38.33 |    128087    |   148969     
         10  | 33:06.20 |  2:51.05 |    148970    |   161799     
         11  | 35:57.25 |  9:02.37 |    161800    |   202486     
         12  | 44:59.62 |  3:13.20 |    202487    |   216981     
         13  | 48:13.07 |  4:00.53 |    216982    |   235034     
         14  | 52:13.60 |  2:36.17 |    235035    |   246751     
         15  | 54:50.02 |  3:05.55 |    246752    |   260681     
         16  | 57:55.57 |  5:19.15 |    260682    |   284621     
         17  | 63:14.72 |  3:27.73 |    284622    |   300219     
         18  | 66:42.70 |  3:30.00 |    300220    |   315969     

Range status and errors

Selected range

       Filename C:\Various - Born to be Wild - Vol.2.by.rat.eac-ape.covers.Israel-club.my1.ru\Various - Born to be Wild - Vol.2.by.rat.eac-ape.covers.Israel-club.my1.ru.wav

       Peak level 100.0 %
       Range quality 99.9 %
       Copy CRC BD9A8DF4
       Copy OK

No errors occurred

End of status report

LINK

Category: OST, Campilation | Views: 302 | Added by: Rat | Rating: 0.0/0
Total comments: 0
Only registered users can add comments.
[ Registration | Login ]

«  March 2010  »
SuMoTuWeThFrSa
 123456
78910111213
14151617181920
21222324252627
28293031


  • Israel-club.my1.ru


  • Copyright MyCorp © 2017