Tuesday, 27.06.2017, 15:55
Welcome Guest | RSS
Main
Registration
Login




Vinyl [7]
Alternative [103]
Jazz [26]
Classic rock [179]
Classical [9]
Hard & Heavy [60]
Mainstream [53]
Hip-Hop [3]
Meditative [11]
New Beats [8]
Progressive [38]
Roots [25]
OST, Campilation [28]
DTS Releases [4]
Dvd Rip [7]
DVD [7]
Lossless HTTP [54]

Rate my site
Total of answers: 17


Total online: 1
Guests: 1
Users: 0

Login form

Main » 2010 » April » 7 » VANGELIS - The City (1990)
14:26
VANGELIS - The City (1990)

VANGELIS - China

1. Chung Kuo 5:31
2. The Long March 2:01
3. The Dragon 4:15
4. The Plum Blossom 2:38
5. The Tao Of Love 2:46
6. The Little Fete 3:04
7. Yin & Yang 5:52
8. Himalaya 10:54
9. Summit 4:30

Quote
I like "space" music: electronic music that inspires a sense of science-fantasy. Vangelis is truly a front-runner of that genre. In "China" he demonstrates his talent by giving his syntho-harmonies a Far-East flavor. A fascinating fusion. "Chung Kuo" has a military pomp feel to it: fanfare for the Emperor. It has a frantic segue into "The Long March," a beautiful piano solo that almost inspires a sense of sad nostalgia. "The Plum Blossom" presents a folk violin against the dynamic backdrop of Vangelis' synthesizer "power" chords. "The Tao Of Love" is, quite simply, beautiful: a wonderful blend of electronic and acoustic arpeggios. "Himalaya," (my personal favorite on this album) puts me into outer space, which like the Himalayas, is vast, cold and indifferent. This song, like much of Vangelis' music, can be heard on Carl Sagan's popular PBS program, "Cosmos." I highly recommend using headphones while listening to this album. . . Enjoy!

Code
Exact Audio Copy V0.99 prebeta 5 from 4. May 2009

EAC extraction logfile from 2. April 2010, 20:41

Vangelis / China

Used drive  : TSSTcorpCD/DVDW SH-S182D   Adapter: 0  ID: 0

Read mode               : Secure
Utilize accurate stream : Yes
Defeat audio cache      : Yes
Make use of C2 pointers : No

Read offset correction                      : 6
Overread into Lead-In and Lead-Out          : No
Fill up missing offset samples with silence : Yes
Delete leading and trailing silent blocks   : No
Null samples used in CRC calculations       : Yes
Used interface                    : Native Win32 interface for Win NT & 2000

Used output format              : User Defined Encoder
Selected bitrate                : 768 kBit/s
Quality                         : High
Add ID3 tag                     : No
Command line compressor         : C:\Program Files\Exact Audio Copy\FLAC\FLAC.EXE
Additional command line options : -6 -V -T "ARTIST=%a" -T "TITLE=%t" -T "ALBUM=%g" -T "DATE=%y" -T "TRACKNUMBER=%n" -T "GENRE=%m" -T "COMMENT=%e" %s -o %d
Use compression offset          : 0

TOC of the extracted CD

       Track |   Start  |  Length  | Start sector | End sector   
      ---------------------------------------------------------
          1  |  0:00.33 |  5:31.27 |        33    |    24884     
          2  |  5:31.60 |  2:01.58 |     24885    |    34017     
          3  |  7:33.43 |  4:15.35 |     34018    |    53177     
          4  | 11:49.03 |  2:38.55 |     53178    |    65082     
          5  | 14:27.58 |  2:46.05 |     65083    |    77537     
          6  | 17:13.63 |  3:04.55 |     77538    |    91392     
          7  | 20:18.43 |  5:52.02 |     91393    |   117794     
          8  | 26:10.45 | 10:53.35 |    117795    |   166804     
          9  | 37:04.05 |  4:30.35 |    166805    |   187089     

Range status and errors

Selected range

       Filename H:\UP\Vangelis - China\Vangelis - China.wav

       Peak level 97.8 %
       Range quality 99.9 %
       Test CRC 169C8A8E
       Copy CRC 169C8A8E
       Copy OK

No errors occurred

End of status report

Original Release Date: 1979

Year:1979
Genre:electronic
Format:flac.cue.log
Releaser:Bundle

My WebPage

Category: Meditative | Views: 317 | Added by: Rat | Rating: 0.0/0
Total comments: 0
Only registered users can add comments.
[ Registration | Login ]

«  April 2010  »
SuMoTuWeThFrSa
    123
45678910
11121314151617
18192021222324
252627282930


  • Israel-club.my1.ru


  • Copyright MyCorp © 2017