Thursday, 20.07.2017, 16:43
Welcome Guest | RSS
Main
Registration
Login




Vinyl [7]
Alternative [103]
Jazz [26]
Classic rock [179]
Classical [9]
Hard & Heavy [60]
Mainstream [53]
Hip-Hop [3]
Meditative [11]
New Beats [8]
Progressive [38]
Roots [25]
OST, Campilation [28]
DTS Releases [4]
Dvd Rip [7]
DVD [7]
Lossless HTTP [54]

Rate my site
Total of answers: 17


Total online: 1
Guests: 1
Users: 0

Login form

Main » 2010 » April » 7 » VANGELIS - The City (1990)
14:14
VANGELIS - The City (1990)

Vangelis - The City

Tracklist :
Autor: Vangelis
Tytuł: The City
=====================
01 - Vangelis - Dawn
02 - Vangelis - Morning Papers
03 - Vangelis - Nerve Centre
04 - Vangelis - Side Streets
05 - Vangelis - Good To See You
06 - Vangelis - Twilight
07 - Vangelis - Red Lights
08 - Vangelis - Procession

Code
Exact Audio Copy V0.99 prebeta 5 from 4. May 2009

EAC extraction logfile from 5. April 2010, 16:19

Vangelis / The City

Used drive  : TSSTcorpCD/DVDW SH-S182D   Adapter: 0  ID: 0

Read mode               : Secure
Utilize accurate stream : Yes
Defeat audio cache      : Yes
Make use of C2 pointers : No

Read offset correction                      : 6
Overread into Lead-In and Lead-Out          : No
Fill up missing offset samples with silence : Yes
Delete leading and trailing silent blocks   : No
Null samples used in CRC calculations       : Yes
Used interface                    : Native Win32 interface for Win NT & 2000

Used output format              : User Defined Encoder
Selected bitrate                : 768 kBit/s
Quality                         : High
Add ID3 tag                     : No
Command line compressor         : C:\Program Files\Exact Audio Copy\FLAC\FLAC.EXE
Additional command line options : -6 -V -T "ARTIST=%a" -T "TITLE=%t" -T "ALBUM=%g" -T "DATE=%y" -T "TRACKNUMBER=%n" -T "GENRE=%m" -T "COMMENT=%e" %s -o %d
Use compression offset          : 0

TOC of the extracted CD

      Track |   Start  |  Length  | Start sector | End sector  
     ---------------------------------------------------------
         1  |  0:00.00 |  4:16.20 |         0    |    19219    
         2  |  4:16.20 |  3:55.65 |     19220    |    36909    
         3  |  8:12.10 |  5:30.40 |     36910    |    61699    
         4  | 13:42.50 |  4:12.68 |     61700    |    80667    
         5  | 17:55.43 |  6:51.00 |     80668    |   111492    
         6  | 24:46.43 |  4:57.50 |    111493    |   133817    
         7  | 29:44.18 |  3:55.30 |    133818    |   151472    
         8  | 33:39.48 |  9:33.67 |    151473    |   194514    

Range status and errors

Selected range

      Filename H:\UP\Vangelis - The City\Vangelis - The City.wav

      Peak level 100.0 %
      Range quality 100.0 %
      Test CRC 4804D832
      Copy CRC 4804D832
      Copy OK

No errors occurred

End of status report

Genre: electronic
Year: 1990
Format: flac.cue.log
Extractor: EAC V0.99 prebeta 5 from 4
Codec: FLAC
Size: 260 MB
Relaser: Bundle

My WebPage

Category: Meditative | Views: 373 | Added by: Rat | Rating: 0.0/0
Total comments: 0
Only registered users can add comments.
[ Registration | Login ]

«  April 2010  »
SuMoTuWeThFrSa
    123
45678910
11121314151617
18192021222324
252627282930


  • Israel-club.my1.ru


  • Copyright MyCorp © 2017