Friday, 23.06.2017, 03:51
Welcome Guest | RSS
Main
Registration
Login




Vinyl [7]
Alternative [103]
Jazz [26]
Classic rock [179]
Classical [9]
Hard & Heavy [60]
Mainstream [53]
Hip-Hop [3]
Meditative [11]
New Beats [8]
Progressive [38]
Roots [25]
OST, Campilation [28]
DTS Releases [4]
Dvd Rip [7]
DVD [7]
Lossless HTTP [54]

Rate my site
Total of answers: 17


Total online: 1
Guests: 1
Users: 0

Login form

Main » 2010 » April » 7 » VANGELIS - Antarctica (1983)
14:09
VANGELIS - Antarctica (1983)

Vangelis - Music From Koreyoshi Kurahara's Film Antarctica
Tracklist :
Autor: Vangelis
Tytuł: Music From Koreyoshi Kurahara's Film Antarctica
==========================================
01 - Vangelis - Theme From Antarctica
02 - Vangelis - Antarctica Echoes
03 - Vangelis - Kinematic
04 - Vangelis - Song Of White
05 - Vangelis - Life Of Antarctica
06 - Vangelis - Memory Of Antarctica
07 - Vangelis - Other Side Of Antarctica
08 - Vangelis - Deliverance

Code
Exact Audio Copy V0.99 prebeta 5 from 4. May 2009

EAC extraction logfile from 2. April 2010, 17:34

Vangelis / Music From Koreyoshi Kurahara's Film Antarctica

Used drive : TSSTcorpCD/DVDW SH-S182D Adapter: 0 ID: 0

Read mode : Secure
Utilize accurate stream : Yes
Defeat audio cache : Yes
Make use of C2 pointers : No

Read offset correction : 6
Overread into Lead-In and Lead-Out : No
Fill up missing offset samples with silence : Yes
Delete leading and trailing silent blocks : No
Null samples used in CRC calculations : Yes
Used interface : Native Win32 interface for Win NT & 2000

Used output format : User Defined Encoder
Selected bitrate : 768 kBit/s
Quality : High
Add ID3 tag : No
Command line compressor : C:\Program Files\Exact Audio Copy\FLAC\FLAC.EXE
Additional command line options : -6 -V -T "ARTIST=%a" -T "TITLE=%t" -T "ALBUM=%g" -T "DATE=%y" -T "TRACKNUMBER=%n" -T "GENRE=%m" -T "COMMENT=%e" %s -o %d

TOC of the extracted CD

Track | Start | Length | Start sector | End sector
---------------------------------------------------------
1 | 0:00.33 | 7:29.50 | 33 | 33757
2 | 7:30.08 | 5:58.05 | 33758 | 60612
3 | 13:28.13 | 3:50.45 | 60613 | 77907
4 | 17:18.58 | 5:17.70 | 77908 | 101752
5 | 22:36.53 | 5:59.42 | 101753 | 128719
6 | 28:36.20 | 5:30.33 | 128720 | 153502
7 | 34:06.53 | 6:56.55 | 153503 | 184757
8 | 41:03.33 | 4:30.50 | 184758 | 205057

Range status and errors

Selected range

Filename H:\UP\Vangelis - Music From Koreyoshi Kurahara's Film Antarctica\Vangelis - Music From Koreyoshi Kurahara's Film Antarctica.wav

Peak level 100.0 %
Range quality 100.0 %
Test CRC 820A4BCB
Copy CRC 820A4BCB
Copy OK

No errors occurred

End of status report

Genre: electronic
Year: 1983
Format: flac.cue.log
Extractor: EAC V0.99 prebeta 5 from 4
Codec: FLAC
Size: 275 MB
Relaser: Bundle

My WebPage

Category: Meditative | Views: 368 | Added by: Rat | Rating: 0.0/0
Total comments: 0
Only registered users can add comments.
[ Registration | Login ]

«  April 2010  »
SuMoTuWeThFrSa
    123
45678910
11121314151617
18192021222324
252627282930


  • Israel-club.my1.ru


  • Copyright MyCorp © 2017