Friday, 23.06.2017, 19:17
Welcome Guest | RSS
Main
Registration
Login




Vinyl [7]
Alternative [103]
Jazz [26]
Classic rock [179]
Classical [9]
Hard & Heavy [60]
Mainstream [53]
Hip-Hop [3]
Meditative [11]
New Beats [8]
Progressive [38]
Roots [25]
OST, Campilation [28]
DTS Releases [4]
Dvd Rip [7]
DVD [7]
Lossless HTTP [54]

Rate my site
Total of answers: 17


Total online: 1
Guests: 1
Users: 0

Login form

Main » 2010 » February » 5 » V.A. - Projektas Pompa (2007)
23:44
V.A. - Projektas Pompa (2007)

RIP INFO:
Extractor: EAC v0.99 pb4
Codec: Mokeys Audio v3.97
Compression: Normal
Archiver: WinRAR v3.61
Archive Contents: APE/CUE/LOG/COVER

Genre: Hip-Hop
Label: BOMBA / U-SOUND, BBCD231
Info: Bomba

Quote
Neabejoju, kad daugelis, kurie bent kiek domisi repu, pamenate kultinę, kažkada Lietuvoje egzistavusią grupę "Pompa”. Taigi, jie sugrįžo: jau kelios savaitės, kai parduotuvių lentynose galite rasti rinkinį "Projektas POMPA”. Jame gerai žinomas grupės "Pompa” dainas perdainuoja dabartiniai Lietuvos repo atstovai. biggrin.gif

Iš vienos pusės, esu šiek tiek skeptiškos nuomonės apie tokius dalykus. Nepatinka senų dainų perdavimai - kas ypač populiaru tarp užsienio, o taip pat ir Lietuvos, POP atlikėjų. Mano nuomone, dainas turi atlikti jų kūrėjai, o ne kiti perdainuoti, bandyti kažką prikelti, o gal tiesiog pasisemti papildomų pinigėlių. biggrin.gif

Iš kitos pusės, nepaisant išankstinės mano nuomonės apie perdainuojamas dainas, albumas tikrai patiko. biggrin.gif Jame radau tikrai ne vieną dainą, kuri "kabino”. Iš tokių galėčiau paminėti Pusho, Shamo, Maqmbos, Mesijaus ir Williuxo dainas. Paskutiniu metu Maqmbos daina ant "repeat’o” sukas. Gėris. Kitos taip pat nebuvo prastos, tačiau taip nekabino. Galbūt tik Phoenix’as nepatiko dėl to, jog nesuprantu rusiškai. down.gif Beje, viršelis tik nepatiko visai…

Šiaip visiems, kuriems teko klausyti originalias dainas arba šiaip mėgstantiems lietuvišką repą, rekomenduoju nusipirkti (arba kitais keliais gauti) šį albumą.

Criminal | Sausis 15, 2008
Tracklist:


1. Pompa - Intro [2:27]
2. Kastetas - 2mblas [3:38]
3. Messiah - Tu Ne Jam [3:19]
4. Willux - Rankos Ant Vairo [3:22]
5. Deiwuzas & Ewex - Judink [2:58]
6. Pushaz - Viskas Tavo Bosui [2:54]
7. Shamas - Uzpakaliukas [3:54]
8. Phoenix & Strizh - Babe [4:21]
9. Medonas - Mama [2:53]
10. Yga - As Sugryzau [4:13]
11. Big-T - Turtuoliai Irgi Verkia [3:43]
12. Mina - Balius [3:29]
13. Maqmba - Kuti Kuti [5:00]
14. Pompa - Outro [1:39]

Code
xact Audio Copy V0.99 prebeta 4 from 23. January 2008

EAC extraction logfile from 25. February 2008, 13:35

Various / Projektas Pompa

Used drive : PIONEER DVD-RW DVR-109 Adapter: 3 ID: 0

Read mode : Secure
Utilize accurate stream : Yes
Defeat audio cache : Yes
Make use of C2 pointers : No

Read offset correction : 48
Overread into Lead-In and Lead-Out : No
Fill up missing offset samples with silence : Yes
Delete leading and trailing silent blocks : No
Null samples used in CRC calculations : Yes
Used interface : Installed external ASPI interface

Used output format : Internal WAV Routines
Sample format : 44.100 Hz; 16 Bit; Stereo

TOC of the extracted CD

Track | Start | Length | Start sector | End sector
---------------------------------------------------------
1 | 0:00.00 | 2:27.16 | 0 | 11040
2 | 2:27.16 | 3:38.51 | 11041 | 27441
3 | 6:05.67 | 3:19.17 | 27442 | 42383
4 | 9:25.09 | 3:22.60 | 42384 | 57593
5 | 12:47.69 | 2:58.31 | 57594 | 70974
6 | 15:46.25 | 2:54.69 | 70975 | 84093
7 | 18:41.19 | 3:54.43 | 84094 | 101686
8 | 22:35.62 | 4:21.40 | 101687 | 121301
9 | 26:57.27 | 2:53.34 | 121302 | 134310
10 | 29:50.61 | 4:13.43 | 134311 | 153328
11 | 34:04.29 | 3:43.46 | 153329 | 170099
12 | 37:48.00 | 3:29.42 | 170100 | 185816
13 | 41:17.42 | 5:00.63 | 185817 | 208379
14 | 46:18.30 | 1:39.19 | 208380 | 215823

Range status and errors

Selected range

Filename D:\Temp\Various - Projektas Pompa.wav

Peak level 99.9 %
Range quality 99.8 %
Copy CRC 7BB0C230
Copy OK

No errors occurred

End of status report

My WebPage

Category: OST, Campilation | Views: 335 | Added by: Rat | Rating: 0.0/0
Total comments: 0
Only registered users can add comments.
[ Registration | Login ]

«  February 2010  »
SuMoTuWeThFrSa
 123456
78910111213
14151617181920
21222324252627
28


  • Israel-club.my1.ru


  • Copyright MyCorp © 2017