Sunday, 25.06.2017, 10:47
Welcome Guest | RSS
Main
Registration
Login




Vinyl [7]
Alternative [103]
Jazz [26]
Classic rock [179]
Classical [9]
Hard & Heavy [60]
Mainstream [53]
Hip-Hop [3]
Meditative [11]
New Beats [8]
Progressive [38]
Roots [25]
OST, Campilation [28]
DTS Releases [4]
Dvd Rip [7]
DVD [7]
Lossless HTTP [54]

Rate my site
Total of answers: 17


Total online: 3
Guests: 3
Users: 0

Login form

Main » 2010 » November » 9 » V.A. - People pro to Purple (2006) ((russian tribute to Deep purple) eac/ape)
06:57
V.A. - People pro to Purple (2006) ((russian tribute to Deep purple) eac/ape)


Artist: V.A. 
Album: Пипл про to Purple 
Released: 2006 
Genre: hard rock 
Format: EAC/APE

01. Arutyunov, D.Chetvergov / Highway Star [0:05:27.70] 
02. Crossroadz / Woman from Tokyo [0:05:17.31] 
03. Alexander Marshal (Gorky Park) / Lazy [0:05:10.04] 
04. Michael Men, D.Chetvergov / Mistreated [0:04:58.16] 
05. Degtyarov / When a Blind Man Cries [0:04:08.30] 
06. Sandler / Stormbringer [0:04:02.61] 
07. Pushking / Strange Kind of Woman [0:04:52.74] 
08. Black obelisk / You Keep On Moving [0:05:22.00] 
09. Anatholy Aleshin / Burn [0:03:18.21] 
10. Gregory Leps / Sail Away [0:04:39.18] 
11. Sergey Mazaev / Demon's Eye [0:04:06.34] 
12. All / Smoke on the Water [0:04:32.02] 
13. Alexander Faifman / Soldier of Fortune [0:03:36.69]

Code
Exact Audio Copy V0.99 prebeta 4 from 23. January 2008 

EAC extraction logfile from 4. November 2010, 5:38 

Various / Пипл про to Purple 

Used drive  : Optiarc DVD RW AD-7170A   Adapter: 3  ID: 0 

Read mode               : Secure 
Utilize accurate stream : Yes 
Defeat audio cache      : Yes 
Make use of C2 pointers : No 

Read offset correction                      : 48 
Overread into Lead-In and Lead-Out          : No 
Fill up missing offset samples with silence : Yes 
Delete leading and trailing silent blocks   : No 
Null samples used in CRC calculations       : Yes 
Used interface                    : Installed external ASPI interface 

Used output format : Internal WAV Routines 
Sample format      : 44.100 Hz; 16 Bit; Stereo 

TOC of the extracted CD 

      Track |   Start  |  Length  | Start sector | End sector  
     --------------------------------------------------------- 
         1  |  0:00.00 |  5:27.70 |         0    |    24594    
         2  |  5:27.70 |  5:17.31 |     24595    |    48400    
         3  | 10:45.26 |  5:10.04 |     48401    |    71654    
         4  | 15:55.30 |  4:58.16 |     71655    |    94020    
         5  | 20:53.46 |  4:08.30 |     94021    |   112650    
         6  | 25:02.01 |  4:02.61 |    112651    |   130861    
         7  | 29:04.62 |  4:52.74 |    130862    |   152835    
         8  | 33:57.61 |  5:22.00 |    152836    |   176985    
         9  | 39:19.61 |  3:18.21 |    176986    |   191856    
        10  | 42:38.07 |  4:39.18 |    191857    |   212799    
        11  | 47:17.25 |  4:06.34 |    212800    |   231283    
        12  | 51:23.59 |  4:32.02 |    231284    |   251685    
        13  | 55:55.61 |  3:36.69 |    251686    |   267954    

Range status and errors 

Selected range 

      Filename C:\Documents and Settings\Мои документы\V.A.- People.about.to Purple.eac.covers.by.rat.lossless-muz.ucoz.com\Various - People about to Purple.eac.covers.by.rat.lossless-muz.ucoz.wav 

      Peak level 100.0 % 
      Range quality 100.0 % 
      Copy CRC 9E806E13 
      Copy OK 

No errors occurred 

End of status report

download

Category: OST, Campilation | Views: 258 | Added by: Rat | Rating: 0.0/0
Total comments: 0
Only registered users can add comments.
[ Registration | Login ]

«  November 2010  »
SuMoTuWeThFrSa
 123456
78910111213
14151617181920
21222324252627
282930


  • Israel-club.my1.ru


  • Copyright MyCorp © 2017