Tuesday, 27.06.2017, 16:03
Welcome Guest | RSS
Main
Registration
Login




Vinyl [7]
Alternative [103]
Jazz [26]
Classic rock [179]
Classical [9]
Hard & Heavy [60]
Mainstream [53]
Hip-Hop [3]
Meditative [11]
New Beats [8]
Progressive [38]
Roots [25]
OST, Campilation [28]
DTS Releases [4]
Dvd Rip [7]
DVD [7]
Lossless HTTP [54]

Rate my site
Total of answers: 17


Total online: 1
Guests: 1
Users: 0

Login form

Main » 2010 » April » 1 » Uriah Heep - Wake The Sleeper (2008)
23:58
Uriah Heep - Wake The Sleeper (2008)

Artist: Uriah Heep
Album: Wake The Sleeper
Released: 2008
Genre: Hard rock
Format: eac-ape-covers

Quote

2008 release, Uriah Heep's first studio album in almost 10 years. Wake The Sleeper is set to herald an exciting new phase for the band, taking their classic sound right into the future. The album see’s Uriah Heep back to their very best and is set to become a future classic: sure to please their dedicated worldwide fan base and fans of Progressive Rock in general. Recorded in 2007 the album was produced by Mike Paxman (Status Quo, Judie Tzuke). This is the band's first album without their long-standing and original drummer, Lee Kerslake who sadly had to leave the band due to ill health in January 2007. Filling the drum stool for the very first time is the hugely well respected Russell Gilbrook. The current band also features Mick Box, Trevor Bolder, Phil Lanzon and Bernie Shaw. 11 tracks including 'Overload', 'Tears Of The World' and 'Light Of A Thousand Stars'. Sanctuary.

01 - Wake the sleeper
02 - Owerload
03 - Tears of the world
04 - Light of a thousand stars
05 - Heaven's rain
06 - Book of lies
07 - What kind of god
08 - Ghost of the ocean
09 - Angels walk with you
10 - Shadow
11 - War child

Code
Exact Audio Copy V0.99 prebeta 3 from 28. July 2007

EAC extraction logfile from 5. June 2008, 19:54

Uriah Heep / Wake The Sleeper

Used drive  : Optiarc DVD RW AD-7170A   Adapter: 1  ID: 0

Read mode               : Secure
Utilize accurate stream : Yes
Defeat audio cache      : Yes
Make use of C2 pointers : No

Read offset correction                      : 48
Overread into Lead-In and Lead-Out          : No
Fill up missing offset samples with silence : Yes
Delete leading and trailing silent blocks   : No
Null samples used in CRC calculations       : Yes
Used interface                    : Installed external ASPI interface

Used output format : Internal WAV Routines
Sample format      : 44.100 Hz; 16 Bit; Stereo

TOC of the extracted CD

       Track |   Start  |  Length  | Start sector | End sector   
      ---------------------------------------------------------
          1  |  0:00.00 |  3:32.60 |         0    |    15959     
          2  |  3:32.60 |  5:58.66 |     15960    |    42875     
          3  |  9:31.51 |  4:45.40 |     42876    |    64290     
          4  | 14:17.16 |  3:57.71 |     64291    |    82136     
          5  | 18:15.12 |  4:17.21 |     82137    |   101432     
          6  | 22:32.33 |  4:04.01 |    101433    |   119733     
          7  | 26:36.34 |  6:38.26 |    119734    |   149609     
          8  | 33:14.60 |  3:22.59 |    149610    |   164818     
          9  | 36:37.44 |  5:24.09 |    164819    |   189127     
         10  | 42:01.53 |  3:35.55 |    189128    |   205307     
         11  | 45:37.33 |  5:07.16 |    205308    |   228348     

Range status and errors

Selected range

       Filename C:\Uriah Heep - Wake The Sleeper.by.rat.eac.ape.covers.Israel-club.my1.ru\Uriah Heep - Wake The Sleeper.by.rat.eac.ape.covers.Israel-club.my1.ru.wav

       Peak level 98.8 %
       Range quality 100.0 %
       Copy CRC B12DD744
       Copy OK

No errors occurred

End of status report

My WebPage

Category: Classic rock | Views: 257 | Added by: Rat | Rating: 0.0/0
Total comments: 0
Only registered users can add comments.
[ Registration | Login ]

«  April 2010  »
SuMoTuWeThFrSa
    123
45678910
11121314151617
18192021222324
252627282930


  • Israel-club.my1.ru


  • Copyright MyCorp © 2017