Thursday, 20.07.2017, 16:36
Welcome Guest | RSS
Main
Registration
Login




Vinyl [7]
Alternative [103]
Jazz [26]
Classic rock [179]
Classical [9]
Hard & Heavy [60]
Mainstream [53]
Hip-Hop [3]
Meditative [11]
New Beats [8]
Progressive [38]
Roots [25]
OST, Campilation [28]
DTS Releases [4]
Dvd Rip [7]
DVD [7]
Lossless HTTP [54]

Rate my site
Total of answers: 17


Total online: 1
Guests: 1
Users: 0

Login form

Main » 2010 » September » 9 » U96 - Das Boot (1992)
09:17
U96 - Das Boot (1992)

Released 1992 (1992)
Genre Electronica, Eurodance
Format eac-ape
Label Cohiba
Polydor
Producer Matiz / AC 16

Quote
Das Boot (german for The Boat) is the first album by the German dance group U96, released in 1992. The track Das Boot covers the soundtrack of the 1981 German film Das Boot, composed by Klaus Doldinger. The name of group (U96) is a reference to the film. Although the package advertises "at least ten top-ten hits", only nine songs are featured in one of the releases.

01. Das Boot [0:05:14.00]
02. Come 2 Gether [0:03:51.00]
03. Der Kommandant [0:03:17.00]
04. No Control [0:04:30.00]
05. Art Of U96 [0:04:26.00]
06. I Wanna Be A Kennedy [0:05:30.25]
07. Ambient Underworld [0:03:54.50]
08. Sporty Animal-Loving Extrovert [0:03:03.00]
09. Sonar Sequences [0:05:56.00]
10. Das Boot (Klassik Version) [0:01:57.00]

Code
Exact Audio Copy V0.99 prebeta 4 from 23. January 2008

EAC extraction logfile from 5. September 2010, 22:04

U96 / Das Boot

Used drive  : TSSTcorpCD/DVDW SH-W162L   Adapter: 3  ID: 1

Read mode               : Secure
Utilize accurate stream : Yes
Defeat audio cache      : Yes
Make use of C2 pointers : No

Read offset correction                      : 6
Overread into Lead-In and Lead-Out          : No
Fill up missing offset samples with silence : Yes
Delete leading and trailing silent blocks   : No
Null samples used in CRC calculations       : Yes
Used interface                    : Installed external ASPI interface

Used output format : Internal WAV Routines
Sample format      : 44.100 Hz; 16 Bit; Stereo

TOC of the extracted CD

      Track |   Start  |  Length  | Start sector | End sector  
     ---------------------------------------------------------
         1  |  0:00.33 |  5:14.00 |        33    |    23582    
         2  |  5:14.33 |  3:51.00 |     23583    |    40907    
         3  |  9:05.33 |  3:17.00 |     40908    |    55682    
         4  | 12:22.33 |  4:30.00 |     55683    |    75932    
         5  | 16:52.33 |  4:26.00 |     75933    |    95882    
         6  | 21:18.33 |  5:30.25 |     95883    |   120657    
         7  | 26:48.58 |  3:54.50 |    120658    |   138257    
         8  | 30:43.33 |  3:03.00 |    138258    |   151982    
         9  | 33:46.33 |  5:56.00 |    151983    |   178682    
        10  | 39:42.33 |  1:57.00 |    178683    |   187457    

Range status and errors

Selected range

      Filename C:\Documents and Settings\Мои документы\U96 - Das Boot.ape.covers..by.rat.lossless-muz.ucoz.com\U96 - Das Boot.ape.covers..by.rat.lossless-muz.ucoz.wav

      Peak level 100.0 %
      Range quality 99.9 %
      Copy CRC 1CC91F60
      Copy OK

No errors occurred

End of status report

Download

Category: New Beats | Views: 400 | Added by: Rat | Rating: 0.0/0
Total comments: 0
Only registered users can add comments.
[ Registration | Login ]

«  September 2010  »
SuMoTuWeThFrSa
   1234
567891011
12131415161718
19202122232425
2627282930


  • Israel-club.my1.ru


  • Copyright MyCorp © 2017