Thursday, 29.06.2017, 04:03
Welcome Guest | RSS
Main
Registration
Login




Vinyl [7]
Alternative [103]
Jazz [26]
Classic rock [179]
Classical [9]
Hard & Heavy [60]
Mainstream [53]
Hip-Hop [3]
Meditative [11]
New Beats [8]
Progressive [38]
Roots [25]
OST, Campilation [28]
DTS Releases [4]
Dvd Rip [7]
DVD [7]
Lossless HTTP [54]

Rate my site
Total of answers: 17


Total online: 1
Guests: 1
Users: 0

Login form

Main » 2010 » October » 13 » Tyrant (US) - Legions of the Dead (1985)
17:30
Tyrant (US) - Legions of the Dead (1985)

Year: 1985 
Genre: Heavy Metal 
Quality: eac-ape

http://www.myspace.com/tyrantrock

01. Warriors Of Metal [0:04:47.17] 
02. Fall Into The Hands Of Evil [0:05:21.70] 
03. The Battle Of Armageddon [0:05:14.23] 
04. Legions Of The Dead [0:07:05.60] 
05. Tyrants Revelation [0:00:55.50] 
06. Listen To The Preacher [0:03:46.40] 
07. Knight Of Darkness [0:03:29.37] 
08. Thru The Night [0:03:26.68] 
09. Sacrifice [0:06:58.10] 
10. Time Is Running Low [0:13:18.65]

Code
Exact Audio Copy V0.99 prebeta 4 from 23. January 2008 

EAC extraction logfile from 12. October 2010, 18:30 

Tyrant / Legions Of The Dead 

Used drive  : Optiarc DVD RW AD-7170A   Adapter: 3  ID: 0 

Read mode               : Secure 
Utilize accurate stream : Yes 
Defeat audio cache      : Yes 
Make use of C2 pointers : No 

Read offset correction                      : 48 
Overread into Lead-In and Lead-Out          : No 
Fill up missing offset samples with silence : Yes 
Delete leading and trailing silent blocks   : No 
Null samples used in CRC calculations       : Yes 
Used interface                    : Installed external ASPI interface 

Used output format : Internal WAV Routines 
Sample format      : 44.100 Hz; 16 Bit; Stereo 

TOC of the extracted CD 

      Track |   Start  |  Length  | Start sector | End sector  
     --------------------------------------------------------- 
         1  |  0:00.00 |  4:47.17 |         0    |    21541    
         2  |  4:47.17 |  5:21.70 |     21542    |    45686    
         3  | 10:09.12 |  5:14.23 |     45687    |    69259    
         4  | 15:23.35 |  7:05.60 |     69260    |   101194    
         5  | 22:29.20 |  0:55.50 |    101195    |   105369    
         6  | 23:24.70 |  3:46.40 |    105370    |   122359    
         7  | 27:11.35 |  3:29.37 |    122360    |   138071    
         8  | 30:40.72 |  3:26.68 |    138072    |   153589    
         9  | 34:07.65 |  6:58.10 |    153590    |   184949    
        10  | 41:06.00 | 13:18.65 |    184950    |   244864    

Range status and errors 

Selected range 

      Filename C:\Documents and Settings\Мои документы\Tyrant - Legions Of The Dead.eac.covers.by.rat.lossless-muz.ucoz.com\Tyrant - Legions Of The Dead.eac.covers.by.rat.lossless-muz.ucoz.wav 

      Peak level 99.9 % 
      Range quality 99.9 % 
      Copy CRC 61E9FB6E 
      Copy OK 

No errors occurred 

End of status report 

Download 
Category: Hard & Heavy | Views: 273 | Added by: Rat | Rating: 0.0/0
Total comments: 0
Only registered users can add comments.
[ Registration | Login ]

«  October 2010  »
SuMoTuWeThFrSa
     12
3456789
10111213141516
17181920212223
24252627282930
31


  • Israel-club.my1.ru


  • Copyright MyCorp © 2017