Saturday, 19.08.2017, 13:14
Welcome Guest | RSS
Main
Registration
Login




Vinyl [7]
Alternative [103]
Jazz [26]
Classic rock [179]
Classical [9]
Hard & Heavy [60]
Mainstream [53]
Hip-Hop [3]
Meditative [11]
New Beats [8]
Progressive [38]
Roots [25]
OST, Campilation [28]
DTS Releases [4]
Dvd Rip [7]
DVD [7]
Lossless HTTP [54]

Rate my site
Total of answers: 17


Total online: 1
Guests: 1
Users: 0

Login form

Main » 2010 » July » 6 » The Psychedelic Furs - Forever Now (rem.+bonus) (1982/2002)
21:30
The Psychedelic Furs - Forever Now (rem.+bonus) (1982/2002)

Audio CD (March 19, 2002)
Original Release Date: March 2002
Number of Discs: 1
Format: Eac-ape, Original recording remastered
Label: Sony
Genre: Post punk, new wave

Quote
This is a great album featuring several of the band's strongest songs as well as fine wordplay throughout by Richard Butler. It's also the Furs' most American-oriented release, produced (nicely) by Todd Rundgren and peppered with clever lyrics saluting "President Gas" or name checking "Ma B. and her boys" (I assume Ma Barker?).

As already noted by a few reviewers, there is a mysterious alteration of the final song, "Yes I Do." This irritates me, because I particularly liked that song at the end of Side 2 on my old vinyl ... the version on this reissue is called "Yes I Do (Merry-Go-Round)" and has different verses, but the chorus is basically the same, although the mix may be a tad different.

At any rate, one of the bonus tracks is an alternate version entitled "Mary Go Round" where we hear (finally! but what are they doing here???) the original verses from "Yes I Do"! It is not an exaggeration to say that the reissue of this great album contains two previously unreleased versions of the orignal album-closer, but they forgot to include the original version. Weird. How does an entire band and its management overlook this? Or at least explain to the fans what happened?

The other bonus material is awesome, particularly the live version from 1982 of "President Gas." If only we could have gotten a live version of "Love My Way"...



01. Forever Now [0:05:35.52]
02. Love My Way [0:03:33.73]
03. Goodbye [0:03:56.17]
04. Only You And I [0:04:25.43]
05. Sleep Comes Down [0:03:51.20]
06. President Gas [0:05:19.00]
07. Run And Run [0:03:48.47]
08. Danger [0:02:37.00]
09. No Easy Street [0:04:06.48]
10. Yes I Do (Merry-Go-Round) [0:03:54.35]
11. Alice's House (Early Version) [0:04:17.65]
12. Aeroplane (Non LP B-Side) [0:03:25.40]
13. I Don't Want To Be Your Shadow (Non LP B-Side) [0:03:46.48]
14. Mary Go Round (Previously Unissued Version Of ''Yes I Do'') [0:03:56.27]
15. President Gas (Live - Non LP B-Side) [0:05:15.05]
16. No Easy Street (Live) [0:05:37.62]

Code

Exact Audio Copy V0.99 prebeta 3 from 28. July 2007

EAC extraction logfile from 29. August 2008, 8:31

The Psychedelic Furs / Forever Now

Used drive  : TSSTcorpCD/DVDW SH-W162L   Adapter: 1  ID: 1

Read mode               : Secure
Utilize accurate stream : Yes
Defeat audio cache      : Yes
Make use of C2 pointers : No

Read offset correction                      : 6
Overread into Lead-In and Lead-Out          : No
Fill up missing offset samples with silence : Yes
Delete leading and trailing silent blocks   : No
Null samples used in CRC calculations       : Yes
Used interface                    : Installed external ASPI interface

Used output format : Internal WAV Routines
Sample format      : 44.100 Hz; 16 Bit; Stereo

TOC of the extracted CD

       Track |   Start  |  Length  | Start sector | End sector   
      ---------------------------------------------------------
          1  |  0:00.00 |  5:35.52 |         0    |    25176     
          2  |  5:35.52 |  3:33.73 |     25177    |    41224     
          3  |  9:09.50 |  3:56.17 |     41225    |    58941     
          4  | 13:05.67 |  4:25.43 |     58942    |    78859     
          5  | 17:31.35 |  3:51.20 |     78860    |    96204     
          6  | 21:22.55 |  5:19.00 |     96205    |   120129     
          7  | 26:41.55 |  3:48.47 |    120130    |   137276     
          8  | 30:30.27 |  2:37.00 |    137277    |   149051     
          9  | 33:07.27 |  4:06.48 |    149052    |   167549     
         10  | 37:14.00 |  3:54.35 |    167550    |   185134     
         11  | 41:08.35 |  4:17.65 |    185135    |   204474     
         12  | 45:26.25 |  3:25.40 |    204475    |   219889     
         13  | 48:51.65 |  3:46.48 |    219890    |   236887     
         14  | 52:38.38 |  3:56.27 |    236888    |   254614     
         15  | 56:34.65 |  5:15.05 |    254615    |   278244     
         16  | 61:49.70 |  5:37.62 |    278245    |   303581     

Range status and errors

Selected range

       Filename C:\The Psychedelic Furs - Forever Now.remasterd.by.rat.eac.ape.covers.Israel-club.my1.ru\The Psychedelic Furs - Forever Now.remasterd.by.rat.eac.ape.covers.Israel-club.my1.ru.wav

       Peak level 100.0 %
       Range quality 100.0 %
       Copy CRC E1865B38
       Copy OK

No errors occurred

     
AccurateRip summary
     
Track  1  not present in database
Track  2  not present in database
Track  3  not present in database
Track  4  not present in database
Track  5  not present in database
Track  6  not present in database
Track  7  not present in database
Track  8  not present in database
Track  9  not present in database
Track 10  not present in database
Track 11  not present in database
Track 12  not present in database
Track 13  not present in database
Track 14  not present in database
Track 15  not present in database
Track 16  not present in database
     
None of the tracks are present in the AccurateRip database

End of status report

My WebPage

Category: Alternative | Views: 187 | Added by: Rat | Rating: 0.0/0
Total comments: 0
Only registered users can add comments.
[ Registration | Login ]

«  July 2010  »
SuMoTuWeThFrSa
    123
45678910
11121314151617
18192021222324
25262728293031


  • Israel-club.my1.ru


  • Copyright MyCorp © 2017