Saturday, 18.11.2017, 06:18
Welcome Guest | RSS
Main
Registration
Login




Vinyl [7]
Alternative [103]
Jazz [26]
Classic rock [179]
Classical [9]
Hard & Heavy [60]
Mainstream [53]
Hip-Hop [3]
Meditative [11]
New Beats [8]
Progressive [38]
Roots [25]
OST, Campilation [28]
DTS Releases [4]
Dvd Rip [7]
DVD [7]
Lossless HTTP [54]

Rate my site
Total of answers: 17


Total online: 1
Guests: 1
Users: 0

Login form

Main » 2012 » April » 13 » The Jeremy Days - Speakeasy (1992)
13:55
The Jeremy Days - Speakeasy (1992)
 

Performer: The Jeremy Days 
Album: Speakeasy 
Label: Polydor. Made in DE. 
Catalog #: 513 545-2, 731451354526 
Style: Alternative /Pop Rock 
Year: 1992 
Format: FLAC (image + .cue) 
Bitrate: lossless 
Covers: in archive
 

Quote
The Jeremy Days was a German pop band from Hamburg , founded in 1987 and 1996, separated again. 
The band originally consisted of Dirk Darmstaedter (vocals, guitar), Christoph M. Kaiser (bass, vocals), Louis C. Oberlander (keyboards), Stefan Rager (drums) and Jörn-Christophe Heilbut (guitar). Rager 1994 left the band and was replaced on drums by Rob Feigel. 
In 1988 on Polydor 's debut album The Jeremy Days , the producers of the English team Clive Langer and Alan Winstanley was produced. The record sold about 150,000 times the single Brand New Toy came up at number 11 in the German charts . 
Are sporadically for special occasions, reunions of the band, the entire original line-up played at the festival "Save the FC St. Pauli" in August 2003 in the Millerntor stadium in Hamburg. In March 2011, played Dirk Darmstaedter, Jörn-Christophe Halibut and Christoph M. Kaiser in Hamburg club verdigris on the memorial service for the late former Palais Schaumburg -media designer and singer Walter Welke (born Thielsch).


01. It is The Time [0:04:13.42] 
02. Nowhere's Girl [0:03:42.73] 
03. Loved [0:03:58.35] 
04. Dear Drug [0:04:05.65] 
05. Girlfriend [0:04:27.40] 
06. Good Morning Beautiful [0:04:22.50] 
07. Tell me What You See [0:03:40.22] 
08. Mountain of Love [0:04:13.13] 
09. Another Day is New [0:03:53.22] 
10. Baby's Blue [0:03:34.03] 
11. Swear [0:03:52.22] 
12. Life Tells a Different Story [0:03:41.43]
 

Code
Exact Audio Copy V1.0 beta 2 from 29. April 2011 

EAC extraction logfile from 13. April 2012, 10:22 

Jeremy Days, the / Speakeasy 

Used drive  : HL-DT-STDVD-RAM GH22NP20   Adapter: 0  ID: 0 

Read mode               : Secure 
Utilize accurate stream : Yes 
Defeat audio cache      : Yes 
Make use of C2 pointers : No 

Read offset correction                      : 102 
Overread into Lead-In and Lead-Out          : No 
Fill up missing offset samples with silence : Yes 
Delete leading and trailing silent blocks   : No 
Null samples used in CRC calculations       : Yes 
Used interface                    : Installed external ASPI interface 

Used output format : Internal WAV Routines 
Sample format      : 44.100 Hz; 16 Bit; Stereo 

TOC of the extracted CD 

      Track |   Start  |  Length  | Start sector | End sector  
     --------------------------------------------------------- 
         1  |  0:00.00 |  4:13.42 |         0    |    19016    
         2  |  4:13.42 |  3:42.73 |     19017    |    35739    
         3  |  7:56.40 |  3:58.35 |     35740    |    53624    
         4  | 11:55.00 |  4:05.65 |     53625    |    72064    
         5  | 16:00.65 |  4:27.40 |     72065    |    92129    
         6  | 20:28.30 |  4:22.50 |     92130    |   111829    
         7  | 24:51.05 |  3:40.22 |    111830    |   128351    
         8  | 28:31.27 |  4:13.13 |    128352    |   147339    
         9  | 32:44.40 |  3:53.22 |    147340    |   164836    
        10  | 36:37.62 |  3:34.03 |    164837    |   180889    
        11  | 40:11.65 |  3:52.22 |    180890    |   198311    
        12  | 44:04.12 |  3:41.43 |    198312    |   214929    

Range status and errors 

Selected range 

      Filename K:\Documents and Settings\Мои документы\The Jeremy Days - Speakeasy.flac.by rat\The Jeremy Days - Speakeasy.flac.by rat.wav 

      Peak level 97.3 % 
      Extraction speed 2.8 X 
      Range quality 100.0 % 
      Copy CRC 4D026267 
      Copy OK 

No errors occurred 

   
AccurateRip summary 
   
Track  1  not present in database 
Track  2  not present in database 
Track  3  not present in database 
Track  4  not present in database 
Track  5  not present in database 
Track  6  not present in database 
Track  7  not present in database 
Track  8  not present in database 
Track  9  not present in database 
Track 10  not present in database 
Track 11  not present in database 
Track 12  not present in database 
   
None of the tracks are present in the AccurateRip database 

End of status report


My WebPage
Category: Alternative | Views: 570 | Added by: Rat | Rating: 0.0/0
Total comments: 0
Only registered users can add comments.
[ Registration | Login ]

«  April 2012  »
SuMoTuWeThFrSa
1234567
891011121314
15161718192021
22232425262728
2930


  • Israel-club.my1.ru


  • Copyright MyCorp © 2017