Friday, 23.06.2017, 22:50
Welcome Guest | RSS
Main
Registration
Login




Vinyl [7]
Alternative [103]
Jazz [26]
Classic rock [179]
Classical [9]
Hard & Heavy [60]
Mainstream [53]
Hip-Hop [3]
Meditative [11]
New Beats [8]
Progressive [38]
Roots [25]
OST, Campilation [28]
DTS Releases [4]
Dvd Rip [7]
DVD [7]
Lossless HTTP [54]

Rate my site
Total of answers: 17


Total online: 1
Guests: 1
Users: 0

Login form

Main » 2010 » February » 11 » The Fireman (Paul Mccartney-Youth)- Electric Arguments(2008
02:17
The Fireman (Paul Mccartney-Youth)- Electric Arguments(2008
 
 
 
# Audio CD (2008)
# Number of Discs: 1
# Format:eac - flac.
# Label: Parlophone
# Genre: Rock/Soft rock
Quote
Electric Arguments is the third album by The Fireman, an experimental music duo comprising Paul McCartney and producer Youth. The album was first announced September 29, 2008, on Paul McCartney's website, and was released on November 24, 2008 on the duo's website.[1] It is the first Fireman release to be publicly acknowledged by McCartney, and the album cover features both names of the contributors.
The album, unlike the earlier Fireman albums, features prominent vocals. Each song on the album was recorded in one day, the album itself done in only thirteen days, spread over the course of a year.[1]
It debuted at #79 on the UK Album Charts, marking the first appearance for The Fireman in the British charts. They also made their inaugural appearance on the Billboard 200, reaching #67.
The duo borrowed the title "Electric Arguments" from the poem "Kansas City to St. Louis" by Allen Ginsberg. In Wired magazine, McCartney stated this was because "he's been looking at the beauty of word combinations rather than their meaning."[2]
" We had a ball making this album, and it was a great departure because it seemed more like improv theatre. In the improv spirit, there are William Burroughs-type cut-ups in the lyrics. I came to "Sing the Changes," as well as all the other songs in the album, with absolutely no concept of what the melody or lyrics would be about. So it was like writing on the spot, which I think lent an electricity to the whole sound. ”




01. Nothing Too Much Just Out Of Sight [0:04:55.32]
02. Two Magpies [0:02:12.00]
03. Sing The Changes [0:03:43.66]
04. Travelling Light [0:05:05.48]
05. Highway [0:04:16.55]
06. Light From Your Lighthouse [0:02:31.31]
07. Sun Is Shining [0:05:11.53]
08. Dance 'Til We're High [0:03:37.10]
09. Lifelong Passion [0:04:48.42]
10. Is This Love? [0:05:51.50]
11. Lovers In A Dream [0:05:21.42]
12. Universal Here, Everlasting Now [0:05:05.31]
13. Don't Stop Running [0:10:30.48]
Code
Exact Audio Copy V0.99 prebeta 4 from 23. January 2008

EAC extraction logfile from 9. July 2009, 10:18

The Fireman / Electric Arguments

Used drive : Optiarc DVD RW AD-7170A Adapter: 3 ID: 0

Read mode : Secure
Utilize accurate stream : Yes
Defeat audio cache : Yes
Make use of C2 pointers : No

Read offset correction : 48
Overread into Lead-In and Lead-Out : No
Fill up missing offset samples with silence : Yes
Delete leading and trailing silent blocks : No
Null samples used in CRC calculations : Yes
Used interface : Installed external ASPI interface

Used output format : Internal WAV Routines
Sample format : 44.100 Hz; 16 Bit; Stereo

TOC of the extracted CD

Track | Start | Length | Start sector | End sector
---------------------------------------------------------
1 | 0:00.00 | 4:55.32 | 0 | 22156
2 | 4:55.32 | 2:12.00 | 22157 | 32056
3 | 7:07.32 | 3:43.66 | 32057 | 48847
4 | 10:51.23 | 5:05.48 | 48848 | 71770
5 | 15:56.71 | 4:16.55 | 71771 | 91025
6 | 20:13.51 | 2:31.31 | 91026 | 102381
7 | 22:45.07 | 5:11.53 | 102382 | 125759
8 | 27:56.60 | 3:37.10 | 125760 | 142044
9 | 31:33.70 | 4:48.42 | 142045 | 163686
10 | 36:22.37 | 5:51.50 | 163687 | 190061
11 | 42:14.12 | 5:21.42 | 190062 | 214178
12 | 47:35.54 | 5:05.31 | 214179 | 237084
13 | 52:41.10 | 10:30.48 | 237085 | 284382

Range status and errors

Selected range

Filename C:\Documents and Settings\Мои документы\The Fireman - Electric Arguments..by.rat.eac.ape.covers.Israel-club.my1.ru\The Fireman - Electric Arguments..by.rat.eac.ape.covers.Israel-club.my1.ru.wav

Peak level 98.8 %
Range quality 100.0 %
Copy CRC F67ADE8F
Copy OK

No errors occurred

End of status report


My WebPage
Category: Classic rock | Views: 250 | Added by: Rat | Rating: 0.0/0
Total comments: 0
Only registered users can add comments.
[ Registration | Login ]

«  February 2010  »
SuMoTuWeThFrSa
 123456
78910111213
14151617181920
21222324252627
28


  • Israel-club.my1.ru


  • Copyright MyCorp © 2017