Thursday, 29.06.2017, 04:11
Welcome Guest | RSS
Main
Registration
Login




Vinyl [7]
Alternative [103]
Jazz [26]
Classic rock [179]
Classical [9]
Hard & Heavy [60]
Mainstream [53]
Hip-Hop [3]
Meditative [11]
New Beats [8]
Progressive [38]
Roots [25]
OST, Campilation [28]
DTS Releases [4]
Dvd Rip [7]
DVD [7]
Lossless HTTP [54]

Rate my site
Total of answers: 17


Total online: 1
Guests: 1
Users: 0

Login form

Main » 2010 » April » 3 » The Doors - Live In Pittsburgh 1970 (2008)
09:21
The Doors - Live In Pittsburgh 1970 (2008)

Artist: The Doors
Album: Live In Pittsburgh 1970
Year: 2008
Label: Rhino
Style: Rock
Format: EAC+CUE+LOG+COVERS

Quote
Rhino and Bright Midnight Archives rifle the archives once again for another previously unreleased live concert recording from The Doors' final tour with Jim Morrison. Recorded on May 2, 1970 at the Pittsburgh Civic Arena, LIVE IN PITTSBURGH 1970 captures an epic performance from the legendary quartet. As the title of a rare dialogue section from the album states, "Tonight You're In For A Special Treat.”
The single-disc performance presents over an hour of incendiary and soulful live music from the late Jim Morrison and surviving Doors John Densmore, Robby Krieger and Ray Manzarek. Highlights include a 22-minute plus version of "When The Music's Over,” during which Morrison improvises with the musical dialogue and leads the band into bits of songs they'd never played live before. Also featured are Doors classics including "Break On Through,” "Five To One,” and an extended, tracklist-closing version of "Light My Fire,” plus takes on Robert Johnson's "Crossroad Blues,” Howlin' Wolf's "Back Door Man” and Willie Dixon's "Close To You” (with Manzarek on lead vocal and Morrison on backup).
LIVE IN PITTSBURGH 1970 was mixed and mastered by The Doors' longtime engineer/producer Bruce Botnick, who recorded several concerts from the band's now-historic 1970 tour on multitrack tape for the Absolutely Live album('70). The concert would have been released sooner save for two small missing sections from the original 8-track masters. Instead of allowing that to prevent the release of this show, the band decided to insert the missing snippets from one of the other 1970 concerts, a process facilitated by Botnick's expertise and familiarity with the tapes.
A companion piece to 2007's 3-CD set Live In Boston-also recorded on the '70 tour-the release continues Rhino's upgrade and expansion of The Doors' catalog that began in honor of the 40th anniversary of their self-titled 1967 debut album, which Rolling Stone has called, "a stoned, immaculate classic.”

01. Back Door Man [0:02:47.47]
02. Love Hides [0:02:23.59]
03. Five To One [0:05:18.38]
04. Roadhouse Blues [0:07:00.62]
05. Mystery Train [0:07:53.32]
06. Away In India [0:03:08.67]
07. Crossroads Blues [0:03:25.40]
08. Universal Mind [0:04:31.05]
09. Someday Soon [0:03:50.72]
10. When The Music's Over [0:16:54.66]
11. Break On Through [0:00:54.29]
12. Push Push [0:00:23.74]
13. The Soft Parade Vamp [0:04:37.12]
14. Tonight You're In For A Special Treat [0:01:28.67]
15. Close To You [0:03:49.54]
16. Light My Fire [0:11:18.34]

Code
Exact Audio Copy V0.99 prebeta 3 from 28. July 2007

EAC extraction logfile from 11. April 2008, 10:55

The Doors / Live In Pittsburgh 1970

Used drive  : TSSTcorpCD/DVDW SH-W162L   Adapter: 1  ID: 1

Read mode               : Secure
Utilize accurate stream : Yes
Defeat audio cache      : Yes
Make use of C2 pointers : No

Read offset correction                      : 6
Overread into Lead-In and Lead-Out          : No
Fill up missing offset samples with silence : Yes
Delete leading and trailing silent blocks   : No
Null samples used in CRC calculations       : Yes
Used interface                    : Installed external ASPI interface

Used output format : Internal WAV Routines
Sample format      : 44.100 Hz; 16 Bit; Stereo

TOC of the extracted CD

       Track |   Start  |  Length  | Start sector | End sector   
      ---------------------------------------------------------
          1  |  0:00.00 |  2:47.47 |         0    |    12571     
          2  |  2:47.47 |  2:23.59 |     12572    |    23355     
          3  |  5:11.31 |  5:18.38 |     23356    |    47243     
          4  | 10:29.69 |  7:00.62 |     47244    |    78805     
          5  | 17:30.56 |  7:53.32 |     78806    |   114312     
          6  | 25:24.13 |  3:08.67 |    114313    |   128479     
          7  | 28:33.05 |  3:25.40 |    128480    |   143894     
          8  | 31:58.45 |  4:31.05 |    143895    |   164224     
          9  | 36:29.50 |  3:50.72 |    164225    |   181546     
         10  | 40:20.47 | 16:54.66 |    181547    |   257662     
         11  | 57:15.38 |  0:54.29 |    257663    |   261741     
         12  | 58:09.67 |  0:23.74 |    261742    |   263540     
         13  | 58:33.66 |  4:37.12 |    263541    |   284327     
         14  | 63:11.03 |  1:28.67 |    284328    |   290994     
         15  | 64:39.70 |  3:49.54 |    290995    |   308223     
         16  | 68:29.49 | 11:18.34 |    308224    |   359107     

Range status and errors

Selected range

       Filename C:\The Doors.-.Live In Pittsburgh.1970.by.rat.eac.ape.covers.Israel-club.my1.ru\The Doors - Live In Pittsburgh 1970.by.wav

       Peak level 93.3 %
       Range quality 100.0 %
       Copy CRC 315DBE11
       Copy OK

No errors occurred

End of status report

My WebPage

Category: Classic rock | Views: 273 | Added by: Rat | Rating: 0.0/0
Total comments: 0
Only registered users can add comments.
[ Registration | Login ]

«  April 2010  »
SuMoTuWeThFrSa
    123
45678910
11121314151617
18192021222324
252627282930


  • Israel-club.my1.ru


  • Copyright MyCorp © 2017