Monday, 11.12.2017, 19:08
Welcome Guest | RSS
Main
Registration
Login




Vinyl [7]
Alternative [103]
Jazz [26]
Classic rock [179]
Classical [9]
Hard & Heavy [60]
Mainstream [53]
Hip-Hop [3]
Meditative [11]
New Beats [8]
Progressive [38]
Roots [25]
OST, Campilation [28]
DTS Releases [4]
Dvd Rip [7]
DVD [7]
Lossless HTTP [54]

Rate my site
Total of answers: 17


Total online: 1
Guests: 1
Users: 0

Login form

Main » 2010 » July » 5 » The Damned - Music For Pleasure (1977)
22:05
The Damned - Music For Pleasure (1977)

Artist: The Damned
Album: Music For Pleasure
Release: 1977/87
Label: Castle
Quality: eac.ape.covers
Genre: Punk

Quote
Music for Pleasure is the second album by the British punk rock band The Damned. It was produced by Nick Mason of Pink Floyd and featured new member Lu Edmunds on guitar alongside Brian James, as well as guest saxophonist Lol Coxhill. The album was the last studio release to feature original guitarist Brian James. It saw the band move into more complex song structures, while maintaining the punk sound of their debut album.

01. Problem Child [0:02:13.35]
02. Don't Cry Wolf [0:03:11.27]
03. One Way Love [0:03:46.25]
04. Politics [0:02:26.13]
05. Stretcher Case [0:01:54.07]
06. Idiot Box [0:04:55.28]
07. You Take My Money [0:02:05.35]
08. Alone [0:03:37.30]
09. Your Eyes [0:02:53.65]
10. Creep (You Can't Fool Me) [0:02:16.37]
11. You Know [0:05:01.03]
12. Help [0:01:46.30]
13. Sick Of Being Sick [0:02:32.12]
14. Singalong A Scabies [0:01:03.03]

Code
Exact Audio Copy V0.99 prebeta 3 from 28. July 2007

EAC extraction logfile from 20. June 2008, 9:06

The Damned / Music For Pleasure

Used drive  : TSSTcorpCD/DVDW SH-W162L   Adapter: 1  ID: 1

Read mode               : Secure
Utilize accurate stream : Yes
Defeat audio cache      : Yes
Make use of C2 pointers : No

Read offset correction                      : 6
Overread into Lead-In and Lead-Out          : No
Fill up missing offset samples with silence : Yes
Delete leading and trailing silent blocks   : No
Null samples used in CRC calculations       : Yes
Used interface                    : Installed external ASPI interface

Used output format : Internal WAV Routines
Sample format      : 44.100 Hz; 16 Bit; Stereo

TOC of the extracted CD

       Track |   Start  |  Length  | Start sector | End sector   
      ---------------------------------------------------------
          1  |  0:00.00 |  2:13.35 |         0    |    10009     
          2  |  2:13.35 |  3:11.27 |     10010    |    24361     
          3  |  5:24.62 |  3:46.25 |     24362    |    41336     
          4  |  9:11.12 |  2:26.13 |     41337    |    52299     
          5  | 11:37.25 |  1:54.07 |     52300    |    60856     
          6  | 13:31.32 |  4:55.28 |     60857    |    83009     
          7  | 18:26.60 |  2:05.35 |     83010    |    92419     
          8  | 20:32.20 |  3:37.30 |     92420    |   108724     
          9  | 24:09.50 |  2:53.65 |    108725    |   121764     
         10  | 27:03.40 |  2:16.37 |    121765    |   132001     
         11  | 29:20.02 |  5:01.03 |    132002    |   154579     
         12  | 34:21.05 |  1:46.30 |    154580    |   162559     
         13  | 36:07.35 |  2:32.12 |    162560    |   173971     
         14  | 38:39.47 |  1:03.03 |    173972    |   178699     

Range status and errors

Selected range

       Filename C:\The Damned - Music For Pleasure..by.rat.eac.ape.covers.Israel-club.my1.ru\The Damned - Music For Pleasure BY RAT.wav

       Peak level 97.7 %
       Range quality 100.0 %
       Copy CRC 510EEE55
       Copy OK

No errors occurred

End of status report

My WebPage

Category: Alternative | Views: 241 | Added by: Rat | Rating: 0.0/0
Total comments: 0
Only registered users can add comments.
[ Registration | Login ]

«  July 2010  »
SuMoTuWeThFrSa
    123
45678910
11121314151617
18192021222324
25262728293031


  • Israel-club.my1.ru


  • Copyright MyCorp © 2017