Friday, 18.08.2017, 03:20
Welcome Guest | RSS
Main
Registration
Login




Vinyl [7]
Alternative [103]
Jazz [26]
Classic rock [179]
Classical [9]
Hard & Heavy [60]
Mainstream [53]
Hip-Hop [3]
Meditative [11]
New Beats [8]
Progressive [38]
Roots [25]
OST, Campilation [28]
DTS Releases [4]
Dvd Rip [7]
DVD [7]
Lossless HTTP [54]

Rate my site
Total of answers: 17


Total online: 1
Guests: 1
Users: 0

Login form

Main » 2012 » March » 11 » The Cry - Quick, Quick Slow - 1984
16:11
The Cry - Quick, Quick Slow - 1984
 

Жанр: new wave 
Год издания диска: 1984 
Страна: uk 
Аудиокодек: FLAC (*.flac) 
Тип рипа: image+.cue 
Битрейт аудио: lossless 
Продолжительность: 49:35 
Источник (релизер): rat24 
Наличие сканов в содержимом раздачи: нет 

Треклист: 
01. No Time for Love [0:04:19.50] 
02. Laughing & Crying [0:04:08.07] 
03. Take It Round Again [0:03:32.18] 
04. Don't Cry [0:03:48.52] 
05. Quick Quick Slow [0:04:25.25] 
06. Money Talks [0:03:45.73] 
07. Dreamland [0:04:12.20] 
08. Welcome to the Club [0:03:45.02] 
09. Before the Boat Goes Down [0:03:46.64] 
10. Need You [0:04:15.64] 
11. Take It Round Again (re-mix) [0:05:17.00] 
12. The Money Goes Down (instr. clubmix) [0:04:28.63] 

Code
Exact Audio Copy V1.0 beta 2 from 29. April 2011 

EAC extraction logfile from 1. March 2012, 15:15 

The Cry  /  Quick, Quick Slow 

Used drive  : HL-DT-STDVD-RAM GH22NP20   Adapter: 0  ID: 0 

Read mode               : Secure 
Utilize accurate stream : Yes 
Defeat audio cache      : Yes 
Make use of C2 pointers : No 

Read offset correction                      : 102 
Overread into Lead-In and Lead-Out          : No 
Fill up missing offset samples with silence : Yes 
Delete leading and trailing silent blocks   : No 
Null samples used in CRC calculations       : Yes 
Used interface                    : Installed external ASPI interface 

Used output format : Internal WAV Routines 
Sample format      : 44.100 Hz; 16 Bit; Stereo 

TOC of the extracted CD 

      Track |   Start  |  Length  | Start sector | End sector 
     --------------------------------------------------------- 
         1  |  0:00.00 |  4:19.50 |         0    |    19474 
         2  |  4:19.50 |  4:08.07 |     19475    |    38081 
         3  |  8:27.57 |  3:32.18 |     38082    |    53999 
         4  | 12:00.00 |  3:48.52 |     54000    |    71151 
         5  | 15:48.52 |  4:25.25 |     71152    |    91051 
         6  | 20:14.02 |  3:45.73 |     91052    |   107999 
         7  | 24:00.00 |  4:12.20 |    108000    |   126919 
         8  | 28:12.20 |  3:45.02 |    126920    |   143796 
         9  | 31:57.22 |  3:46.64 |    143797    |   160810 
        10  | 35:44.11 |  4:15.64 |    160811    |   179999 
        11  | 40:00.00 |  5:17.00 |    180000    |   203774 
        12  | 45:17.00 |  4:28.63 |    203775    |   223937 

Range status and errors 

Selected range 

      Filename K:\Documents and Settings\Мои документы\The Cry  -  Quick, Quick Slow.by rat\The Cry  -  Quick, Quick Slow.by rat.wav 

      Peak level 97.5 % 
      Extraction speed 2.8 X 
      Range quality 100.0 % 
      Copy CRC 97380374 
      Copy OK 

No errors occurred 

AccurateRip summary 

Track  1  not present in database 
Track  2  not present in database 
Track  3  not present in database 
Track  4  not present in database 
Track  5  not present in database 
Track  6  not present in database 
Track  7  not present in database 
Track  8  not present in database 
Track  9  not present in database 
Track 10  not present in database 
Track 11  not present in database 
Track 12  not present in database 

None of the tracks are present in the AccurateRip database 

End of status report


download
Category: Alternative | Views: 511 | Added by: Rat | Rating: 0.0/0
Total comments: 0
Only registered users can add comments.
[ Registration | Login ]

«  March 2012  »
SuMoTuWeThFrSa
    123
45678910
11121314151617
18192021222324
25262728293031


  • Israel-club.my1.ru


  • Copyright MyCorp © 2017