Sunday, 22.10.2017, 08:30
Welcome Guest | RSS
Main
Registration
Login




Vinyl [7]
Alternative [103]
Jazz [26]
Classic rock [179]
Classical [9]
Hard & Heavy [60]
Mainstream [53]
Hip-Hop [3]
Meditative [11]
New Beats [8]
Progressive [38]
Roots [25]
OST, Campilation [28]
DTS Releases [4]
Dvd Rip [7]
DVD [7]
Lossless HTTP [54]

Rate my site
Total of answers: 17


Total online: 1
Guests: 1
Users: 0

Login form

Main » 2010 » February » 5 » The Alan Parsons Project - Lime Light - The Best Of (1987)
23:37
The Alan Parsons Project - Lime Light - The Best Of (1987)

Artist: The Alan Parsons Project
Album: Lime Light - The Best Of
Released: 1987
Genre: Soft/art rock
Format: eac-ape.covers

Quote
The 1987 Limelight Album on Arista Records is actually a Best Off Volume 2, includes the title track & hypnotic tracks I Robot & Mammagamma
Vaue: Unlisted
Condition: Sleeve is in good condirtion with only the slightest bumping. Record is clean, unmarked plays well without noise

01. Limelight [0:04:41.00]
02. The Same Old Sun [0:05:25.25]
03. Ammonia Avenue [0:06:32.50]
04. Mammagamma [0:03:35.25]
05. Since The Last Goodbye [0:04:36.25]
06. I Robot [0:06:03.25]
07. Prime Time [0:05:03.00]
08. Hawkeye [0:03:47.50]
09. The Turn Of A Friendly Card [0:02:40.50]
10. Silence And I [0:07:20.50]

Code

Exact Audio Copy V0.99 prebeta 3 from 28. July 2007

EAC extraction logfile from 21. February 2008, 19:16

The Alan Parsons Project / Lime Light (The Best Of Vol. 2)

Used drive  : TSSTcorpCD/DVDW SH-W162L   Adapter: 1  ID: 1

Read mode               : Secure
Utilize accurate stream : Yes
Defeat audio cache      : Yes
Make use of C2 pointers : No

Read offset correction                      : 6
Overread into Lead-In and Lead-Out          : No
Fill up missing offset samples with silence : Yes
Delete leading and trailing silent blocks   : No
Null samples used in CRC calculations       : Yes
Used interface                    : Installed external ASPI interface

Used output format : Internal WAV Routines
Sample format      : 44.100 Hz; 16 Bit; Stereo

TOC of the extracted CD

       Track |   Start  |  Length  | Start sector | End sector   
      ---------------------------------------------------------
          1  |  0:00.00 |  4:41.00 |         0    |    21074     
          2  |  4:41.00 |  5:25.25 |     21075    |    45474     
          3  | 10:06.25 |  6:32.50 |     45475    |    74924     
          4  | 16:39.00 |  3:35.25 |     74925    |    91074     
          5  | 20:14.25 |  4:36.25 |     91075    |   111799     
          6  | 24:50.50 |  6:03.25 |    111800    |   139049     
          7  | 30:54.00 |  5:03.00 |    139050    |   161774     
          8  | 35:57.00 |  3:47.50 |    161775    |   178849     
          9  | 39:44.50 |  2:40.50 |    178850    |   190899     
         10  | 42:25.25 |  7:20.50 |    190900    |   223949     

Range status and errors

Selected range

       Filename C:\The Alan Parsons Project - Lime Light (The Best Of Vol. 2).by.rat.eac.ape.covers.Israel-club.my1.ru\The Alan Parsons Project - Lime Light (The Best Of Vol. 2).by.rat.eac.ape.covers.Israel-club.my1.ru..wav

       Peak level 91.2 %
       Range quality 99.8 %
       Copy CRC 45333B78
       Copy OK

No errors occurred

End of status report

link

Category: Progressive | Views: 695 | Added by: Rat | Rating: 0.0/0
Total comments: 0
Only registered users can add comments.
[ Registration | Login ]

«  February 2010  »
SuMoTuWeThFrSa
 123456
78910111213
14151617181920
21222324252627
28


  • Israel-club.my1.ru


  • Copyright MyCorp © 2017