Wednesday, 13.12.2017, 09:05
Welcome Guest | RSS
Main
Registration
Login




Vinyl [7]
Alternative [103]
Jazz [26]
Classic rock [179]
Classical [9]
Hard & Heavy [60]
Mainstream [53]
Hip-Hop [3]
Meditative [11]
New Beats [8]
Progressive [38]
Roots [25]
OST, Campilation [28]
DTS Releases [4]
Dvd Rip [7]
DVD [7]
Lossless HTTP [54]

Rate my site
Total of answers: 17


Total online: 1
Guests: 1
Users: 0

Login form

Main » 2012 » February » 20 » Syd Barrett - Barrett (1970/2003) (Bonus trx)
10:18
Syd Barrett - Barrett (1970/2003) (Bonus trx)
 

Artist: Syd Barrett 
Album: The Madcap Laughs 
Released: 2003 
Source: EMI records 
Genre: prog/art rock 
Format: eac.ape
 

Quote
On his second solo album, Barrett was joined by Humble Pie drummer Jerry Shirley and Pink Floyd members Rick Wright (organ) and Dave Gilmour (guitar). Gilmour and Wright acted as producers as well. Instrumentally, the result is a bit fuller and smoother than the first album, although it's since been revealed that Gilmour and Wright embellished these songs as best they could without much involvement from Barrett, who was often unable or unwilling to perfect his performance. The songs, however, are just as fractured as on his debut, if not more so. "Baby Lemonade," "Gigolo Aunt," and the nursery rhyming "Effervescing Elephant" rank among his peppiest and best-loved tunes. Elsewhere, the tone is darker and more meandering. It was regarded as something of a charming but unfocused throwaway at the time of its release, but Barrett's singularly whimsical and unsettling vision holds up well.


01. Baby Lemonade [0:04:11.57] 
02. Love Song [0:03:05.45] 
03. Dominoes [0:04:09.30] 
04. It Is Obvious [0:03:00.18] 
05. Rats [0:03:02.20] 
06. Maisie [0:02:51.50] 
07. Gigolo Aunt [0:05:47.30] 
08. Waving My Arms In The Air [0:02:07.30] 
09. I Never Lied To You [0:01:52.15] 
10. Winen And Dinen [0:02:59.20] 
11. Wolfpack [0:03:41.45] 
12. Effervescing Elephant [0:01:54.45] 
13. Baby Lemonade (take 1) [0:03:46.37] 

Bonus trx: 
14. Waving my Arms In The Air (take 1) [0:02:13.18] 
15. I Never Lied To You (take 1) [0:01:48.27] 
16. Love Song (take 1) [0:02:32.30] 
17. Dominoes (take 1) [0:00:40.58] 
18. Dominoes (take 2) [0:02:36.32]
 
Code

Exact Audio Copy V0.99 prebeta 3 from 28. July 2007 

EAC extraction logfile from 16. September 2007, 7:52 

Syd Barrett / Barrett 

Used drive  : Optiarc DVD RW AD-7170A   Adapter: 1  ID: 0 

Read mode               : Secure 
Utilize accurate stream : Yes 
Defeat audio cache      : Yes 
Make use of C2 pointers : No 

Read offset correction                      : 48 
Overread into Lead-In and Lead-Out          : No 
Fill up missing offset samples with silence : Yes 
Delete leading and trailing silent blocks   : No 
Null samples used in CRC calculations       : Yes 
Used interface                    : Installed external ASPI interface 

Used output format : Internal WAV Routines 
Sample format      : 44.100 Hz; 16 Bit; Stereo 

TOC of the extracted CD 

      Track |   Start  |  Length  | Start sector | End sector  
     --------------------------------------------------------- 
         1  |  0:00.33 |  4:11.57 |        33    |    18914    
         2  |  4:12.15 |  3:05.45 |     18915    |    32834    
         3  |  7:17.60 |  4:09.30 |     32835    |    51539    
         4  | 11:27.15 |  3:00.18 |     51540    |    65057    
         5  | 14:27.33 |  3:02.20 |     65058    |    78727    
         6  | 17:29.53 |  2:51.50 |     78728    |    91602    
         7  | 20:21.28 |  5:47.30 |     91603    |   117657    
         8  | 26:08.58 |  2:07.30 |    117658    |   127212    
         9  | 28:16.13 |  1:52.15 |    127213    |   135627    
        10  | 30:08.28 |  2:59.20 |    135628    |   149072    
        11  | 33:07.48 |  3:41.45 |    149073    |   165692    
        12  | 36:49.18 |  1:54.45 |    165693    |   174287    
        13  | 38:43.63 |  3:46.37 |    174288    |   191274    
        14  | 42:30.25 |  2:13.18 |    191275    |   201267    
        15  | 44:43.43 |  1:48.27 |    201268    |   209394    
        16  | 46:31.70 |  2:32.30 |    209395    |   220824    
        17  | 49:04.25 |  0:40.58 |    220825    |   223882    
        18  | 49:45.08 |  2:36.32 |    223883    |   235614    
        19  | 52:21.40 |  3:51.03 |    235615    |   252942    
        20  | 58:44.43 | 15:13.32 |    264343    |   332849    

Range status and errors 

Selected range 

      Filename C:\Syd Barrett - Barrett.by.rat.eac-ape.covers.bonus.trx\Syd Barrett - Barrett.by.rat.eac-ape.covers.bonus.trx.wav 

      Peak level 89.5 % 
      Range quality 99.9 % 
      Copy CRC F5F3E331 
      Copy OK 

No errors occurred 

End of status report


ed2k://|file|Syd
Category: Progressive | Views: 374 | Added by: Rat | Rating: 0.0/0
Total comments: 0
Only registered users can add comments.
[ Registration | Login ]

«  February 2012  »
SuMoTuWeThFrSa
   1234
567891011
12131415161718
19202122232425
26272829


  • Israel-club.my1.ru


  • Copyright MyCorp © 2017