Thursday, 29.06.2017, 04:07
Welcome Guest | RSS
Main
Registration
Login




Vinyl [7]
Alternative [103]
Jazz [26]
Classic rock [179]
Classical [9]
Hard & Heavy [60]
Mainstream [53]
Hip-Hop [3]
Meditative [11]
New Beats [8]
Progressive [38]
Roots [25]
OST, Campilation [28]
DTS Releases [4]
Dvd Rip [7]
DVD [7]
Lossless HTTP [54]

Rate my site
Total of answers: 17


Total online: 1
Guests: 1
Users: 0

Login form

Main » 2010 » April » 3 » Stretch - You Can't Beat Your Brain For Entertainment (1976)
09:09
Stretch - You Can't Beat Your Brain For Entertainment (1976)
Нажмите на 
изображение, чтобы открыть его в исходном размере.

Artist: Stretch
Album: You Can't Beat Your Brain...
Released: 1976/2006
Source: Repertoire
Genre: hard/rock
Format: eac.ape

Цитата:
Stretch was a band that grew from the collaboration between Elmer Gantry (vocals, guitar, real name Dave Terry) and Kirby (guitar,vocals, real name Graham Gregory). Gantry was previously the frontman of ELmer Gantry's Velvet Opera. Kirby was previously a member of Curved Air.

The band was put together with help from Gantry and Kirby's management on the initiation of Mick Fleetwood, to perform as Fleetwood Mac on a US tour, because of outstanding contractual obligations. Unfortunately, Fleetwood was unable to join the band for personal reasons, and part way through the tour it was realised that there was no original member of Fleetwood Mac in the band. The tour collapsed because the band was declaimed as a bogus Fleetwood Mac.

The band, Stretch, rose from the ashes of this debacle. They initially recorded an album, "You Can't Beat Your Brain For Entertainment", and had a No2 hit single with "Why Did You Do That?", the lyric of which was actually a direct attack on Mick Fleetwood for his failure to join the band on the ill-fated Fleetwood Mac tour. Unfortunately both Gantry and Kirby were becoming reliant on drugs to maintain their lifestyle - a second album was made, but Gantry played a minor part because Kirby sacked him (at a later date Kirby famously sacked himself). Sadly, the band always had to endure the stigma of the "bogus Fleetwood Mac" episode.

Both Gantry and Kirby now work in the field of drug rehabilitation counselling.
01. Fixin' To Die [0:03:37.31]
02. If The Cap Fits [0:03:27.15]
03. The Way Life Is [0:04:03.54]
04. That's The Way The Wind Blows [0:03:47.19]
05. Hold Up The Light [0:03:23.57]
06. Can't Get Enough [0:03:41.51]
07. Hold On [0:03:24.39]
08. Put Your Hands Up [0:04:09.26]
09. Loves Got A Hold On Me [0:04:02.31]
10. Feelin' Sad [0:05:27.52]


Код:
Exact Audio Copy V0.99 prebeta 3 from 28. July 2007

EAC extraction logfile from 19. April 2008, 9:29

Stretch / You Can't Beat Your Brain For Entertainment

Used drive : Optiarc DVD RW AD-7170A Adapter: 1 ID: 0

Read mode : Secure
Utilize accurate stream : Yes
Defeat audio cache : Yes
Make use of C2 pointers : No

Read offset correction : 48
Overread into Lead-In and Lead-Out : No
Fill up missing offset samples with silence : Yes
Delete leading and trailing silent blocks : No
Null samples used in CRC calculations : Yes
Used interface : Installed external ASPI interface

Used output format : Internal WAV Routines
Sample format : 44.100 Hz; 16 Bit; Stereo

TOC of the extracted CD

Track | Start | Length | Start sector | End sector
---------------------------------------------------------
1 | 0:00.00 | 3:37.31 | 0 | 16305
2 | 3:37.31 | 3:27.15 | 16306 | 31845
3 | 7:04.46 | 4:03.54 | 31846 | 50124
4 | 11:08.25 | 3:47.19 | 50125 | 67168
5 | 14:55.44 | 3:23.57 | 67169 | 82450
6 | 18:19.26 | 3:41.51 | 82451 | 99076
7 | 22:01.02 | 3:24.39 | 99077 | 114415
8 | 25:25.41 | 4:09.26 | 114416 | 133116
9 | 29:34.67 | 4:02.31 | 133117 | 151297
10 | 33:37.23 | 5:27.52 | 151298 | 175874

Range status and errors

Selected range

Filename C:\Stretch.- .You.Can't.Beat.Your.Brain.For.Entertainmentrat.eac.ape.covers.Israel-club.my1.ru\Stretch.- .You.Can't.Beat.Your.Brain.For.Entertainmentrat.eac.ape.covers.Israel-club.my1.ru.wav

Peak level 98.8 %
Range quality 100.0 %
Copy CRC 5FFBFC43
Copy OK

No errors occurred

End of status report
My WebPage
Category: Classic rock | Views: 239 | Added by: Rat | Rating: 0.0/0
Total comments: 0
Only registered users can add comments.
[ Registration | Login ]

«  April 2010  »
SuMoTuWeThFrSa
    123
45678910
11121314151617
18192021222324
252627282930


  • Israel-club.my1.ru


  • Copyright MyCorp © 2017