Thursday, 14.12.2017, 02:30
Welcome Guest | RSS
Main
Registration
Login




Vinyl [7]
Alternative [103]
Jazz [26]
Classic rock [179]
Classical [9]
Hard & Heavy [60]
Mainstream [53]
Hip-Hop [3]
Meditative [11]
New Beats [8]
Progressive [38]
Roots [25]
OST, Campilation [28]
DTS Releases [4]
Dvd Rip [7]
DVD [7]
Lossless HTTP [54]

Rate my site
Total of answers: 17


Total online: 1
Guests: 1
Users: 0

Login form

Main » 2010 » February » 21 » Status Quo - The Party Ain't Over Yet (2005)
17:58
Status Quo - The Party Ain't Over Yet (2005)

Rok / Year: 2005
Rodzaj / Genre: rock
Format: eac-ape
Extractor: eac 099
Codec: mac 4.01

Quote
The Party Ain't Over Yet was titled to mark the celebrations surrounding Status Quo's 40th anniversary -- and very well-titled it was. The first decade of the new century had so far seen the band vacillate between some genuinely powerful all-new albums, and a pair of covers collections that, apparently, the record company insisted upon. Party falls into the former category, and it does the old firm proud, building upon the dynamism of Heavy Traffic with another album chock-full of drop-dead gorgeous rockers. The title track sets the mood, confident and crunching, and bulldozing any lingering past specters by never allowing the energy to flag. True, the band's now-entrenched fascination with country-rock does raise its head occasionally, but there's also a fine nod in the direction of Quo's roots in the early '70s prog boom, "Nevashooda," while "This Is Me" is as unselfconsciously psychedelic as anything they've done since the days of "Matchstick Men." Possibly the album is not as all-round powerful as Heavy Traffic, but that is only to be expected -- Quo wasn't as good as Hello!, either. But with 40 years under their belt, Quo really should know what they're doing now, and The Party Ain't Over Yet is a promise to savor.

01. The Party Ain't Over Yet [0:03:51.37]
02. Gotta Get Up And Go [0:04:18.20]
03. All That Counts Is Love [0:03:41.20]
04. Familiar Blues [0:05:09.35]
05. The Bubble [0:05:36.57]
06. Belavista Man [0:04:21.65]
07. Nevashooda [0:03:52.19]
08. Velvet Train [0:03:33.67]
09. Goodbye Baby [0:04:08.15]
10. You Never Stop [0:04:33.41]
11. Kick Me When I'm Down [0:03:17.31]
12. Cupid Stupid [0:03:51.27]
13. This Is Me [0:04:47.37]

Code
Exact Audio Copy V0.99 prebeta 3 from 28. July 2007

EAC extraction logfile from 1. August 2008, 19:41

Status Quo / The Party Ain't Over Yet

Used drive  : Optiarc DVD RW AD-7170A   Adapter: 1  ID: 0

Read mode               : Secure
Utilize accurate stream : Yes
Defeat audio cache      : Yes
Make use of C2 pointers : No

Read offset correction                      : 48
Overread into Lead-In and Lead-Out          : No
Fill up missing offset samples with silence : Yes
Delete leading and trailing silent blocks   : No
Null samples used in CRC calculations       : Yes
Used interface                    : Installed external ASPI interface

Used output format : Internal WAV Routines
Sample format      : 44.100 Hz; 16 Bit; Stereo

TOC of the extracted CD

        Track |   Start  |  Length  | Start sector | End sector    
       ---------------------------------------------------------
           1  |  0:00.00 |  3:51.37 |         0    |    17361      
           2  |  3:51.37 |  4:18.20 |     17362    |    36731      
           3  |  8:09.57 |  3:41.20 |     36732    |    53326      
           4  | 11:51.02 |  5:09.35 |     53327    |    76536      
           5  | 17:00.37 |  5:36.57 |     76537    |   101793      
           6  | 22:37.19 |  4:21.65 |    101794    |   121433      
           7  | 26:59.09 |  3:52.19 |    121434    |   138852      
           8  | 30:51.28 |  3:33.67 |    138853    |   154894      
           9  | 34:25.20 |  4:08.15 |    154895    |   173509      
          10  | 38:33.35 |  4:33.41 |    173510    |   194025      
          11  | 43:07.01 |  3:17.31 |    194026    |   208831      
          12  | 46:24.32 |  3:51.27 |    208832    |   226183      
          13  | 50:15.59 |  4:47.37 |    226184    |   247745      

Range status and errors

Selected range

        Filename E:\Status Quo - The Party Ain't Over Yet\Status Quo - The Party Ain't Over Yet.wav

        Peak level 98.9 %
        Range quality 100.0 %
        Copy CRC 73A185A0
        Copy OK

No errors occurred

       
AccurateRip summary
       
Track  1  cannot be verified as accurate (confidence 3)  [C18A8949], AccurateRip returned [5D14CEED]
Track  2  cannot be verified as accurate (confidence 3)  [4A73D040], AccurateRip returned [E4CCD4E2]
Track  3  cannot be verified as accurate (confidence 3)  [75F5A476], AccurateRip returned [694626FD]
Track  4  cannot be verified as accurate (confidence 3)  [BC90EC29], AccurateRip returned [B0A2A77B]
Track  5  cannot be verified as accurate (confidence 3)  [8AF50D86], AccurateRip returned [C1BD2520]
Track  6  cannot be verified as accurate (confidence 3)  [CCDD149D], AccurateRip returned [467160EF]
Track  7  cannot be verified as accurate (confidence 3)  [B04EBE63], AccurateRip returned [5E7ECAA8]
Track  8  cannot be verified as accurate (confidence 3)  [E26244EF], AccurateRip returned [A7717DEC]
Track  9  cannot be verified as accurate (confidence 3)  [92817327], AccurateRip returned [1C0E1E48]
Track 10  cannot be verified as accurate (confidence 3)  [07C6FBBA], AccurateRip returned [3C10A80D]
Track 11  cannot be verified as accurate (confidence 3)  [427A33DE], AccurateRip returned [9E810E7E]
Track 12  cannot be verified as accurate (confidence 3)  [2F200C81], AccurateRip returned [D30250F0]
Track 13  cannot be verified as accurate (confidence 3)  [E9A56463], AccurateRip returned [1F3A6267]
       
No tracks could be verified as accurate
You may have a different pressing from the one(s) in the database

End of status report

My WebPage

Category: Classic rock | Views: 312 | Added by: Rat | Rating: 0.0/0
Total comments: 0
Only registered users can add comments.
[ Registration | Login ]

«  February 2010  »
SuMoTuWeThFrSa
 123456
78910111213
14151617181920
21222324252627
28


  • Israel-club.my1.ru


  • Copyright MyCorp © 2017