Monday, 26.06.2017, 19:27
Welcome Guest | RSS
Main
Registration
Login




Vinyl [7]
Alternative [103]
Jazz [26]
Classic rock [179]
Classical [9]
Hard & Heavy [60]
Mainstream [53]
Hip-Hop [3]
Meditative [11]
New Beats [8]
Progressive [38]
Roots [25]
OST, Campilation [28]
DTS Releases [4]
Dvd Rip [7]
DVD [7]
Lossless HTTP [54]

Rate my site
Total of answers: 17


Total online: 1
Guests: 1
Users: 0

Login form

Main » 2010 » March » 21 » Status Quo - Rock 'Til You Drop (rem/bonus trx.) (1991/2006)
22:23
Status Quo - Rock 'Til You Drop (rem/bonus trx.) (1991/2006)

Style: rock
Year: 2006 (1991)
Country: uk
Format: Lossless
Quality: eac-ape

Quote
Having shot themselves in the foot with a succession of below-par albums in the 1980s, Quo began to reassert themselves firstly with a series of high-profile concerts (including the Rock Till You Drop event which earnt them a place in the Guinness Book of Records) secondly with this album featuring the same title as their marathon stint playing 4 cities in a day. It's a partial return to form; the guitars are higher in the mix, the drums/bass are loud and much of the first half of the album roars out of the traps like a hare on speed at a greyhound meet: Like a Zombie, One Man Band and even the re-recording of "Can't Give You More" (although deemed un-neccessary by some fans) display an aggression and energy which rolls back the years (most of the band were in their early 40s by this point.)

On the flip side, the quality of the album is seriously diluted & diminished by far too many un-necessary covers and even more so by the baffling re-recording of the dreadful, saccharine and utterly annoying love-ballad "Tommy" from 1989's Perfect Remedy album (come on guys, once was bad enough!) What grates most is that the four B-sides/unreleased tracks (Heavy Daze, Mysteries from the Ball, Dead in the Water and Better Times) were far, far stronger than songs like Fame or Money, Good Sign and Nothing Comes Easy which DID end up on the album.

Take a hypothetical track-listing: Like a Zombie, All We Really Wanna Do, Fakin' the Blues, One Man Band, Rock Till You Drop, Can't Give You More, Warning Shot, No Problems, Heavy Daze, Mysteries from the Ball, Dead in the Water, Better Times.

With a track-listing along those lines (covers & re-recordings omitted and the B-sides included instead of the three album tracks mentioned earlier) I suspect this would have been hailed as a classic album and up there with Quo's very best. As things stand, a good effort and still worth buying but very much a case of much less would have been a great deal more.


1. Like A Zombie 5:00
2. All We Really Wanna Do (Polly) 3:46
3. Fakin' The Blues 4:28
4. One Man Band 4:29
5. Rock 'Til You Drop 3:17
6. Can't Give You More 4:25
7. Warning Shot 3:57
8. Let's Work Together 3:39
9. Bring It On Home 3:09
10. No Problems 4:47
11. Good Sign 4:14
12. Tommy 3:51
13. Nothing Comes Easy 5:47
14. Fame Or Money 4:05
15. The Price Of Love 3:39
16. Forty Five Hundred Times 12:57

Code
Exact Audio Copy V0.99 prebeta 3 from 28. July 2007

EAC extraction logfile from 12. September 2008, 18:09

Status Quo / Rock 'Til You Drop

Used drive  : TSSTcorpCD/DVDW SH-W162L   Adapter: 1  ID: 1

Read mode               : Secure
Utilize accurate stream : Yes
Defeat audio cache      : Yes
Make use of C2 pointers : No

Read offset correction                      : 6
Overread into Lead-In and Lead-Out          : No
Fill up missing offset samples with silence : Yes
Delete leading and trailing silent blocks   : No
Null samples used in CRC calculations       : Yes
Used interface                    : Installed external ASPI interface

Used output format : Internal WAV Routines
Sample format      : 44.100 Hz; 16 Bit; Stereo

TOC of the extracted CD

       Track |   Start  |  Length  | Start sector | End sector   
      ---------------------------------------------------------
          1  |  0:00.00 |  5:03.28 |         0    |    22752     
          2  |  5:03.28 |  3:47.00 |     22753    |    39777     
          3  |  8:50.28 |  4:29.15 |     39778    |    59967     
          4  | 13:19.43 |  4:31.02 |     59968    |    80294     
          5  | 17:50.45 |  3:21.43 |     80295    |    95412     
          6  | 21:12.13 |  4:27.05 |     95413    |   115442     
          7  | 25:39.18 |  3:58.30 |    115443    |   133322     
          8  | 29:37.48 |  3:41.52 |    133323    |   149949     
          9  | 33:19.25 |  3:10.43 |    149950    |   164242     
         10  | 36:29.68 |  4:51.07 |    164243    |   186074     
         11  | 41:21.00 |  4:15.20 |    186075    |   205219     
         12  | 45:36.20 |  3:50.28 |    205220    |   222497     
         13  | 49:26.48 |  5:46.52 |    222498    |   248499     
         14  | 55:13.25 |  4:06.15 |    248500    |   266964     
         15  | 59:19.40 |  3:39.33 |    266965    |   283422     
         16  | 62:58.73 | 12:56.42 |    283423    |   341664     

Range status and errors

Selected range

       Filename C:\Status.Quo.-.Rock.'Til.You.Drop.remastered.by.rat.eac.ape.covers.Israel-club.my1.ru\Status Quo - Rock 'Til You Drop.by.wav

       Peak level 94.1 %
       Range quality 99.9 %
       Copy CRC D33F0284
       Copy OK

No errors occurred

     
AccurateRip summary
     
Track  1  cannot be verified as accurate (confidence 3)  [DDFCD11B], AccurateRip returned [326EA50E]
Track  2  cannot be verified as accurate (confidence 3)  [12E2D47D], AccurateRip returned [72B9914A]
Track  3  cannot be verified as accurate (confidence 3)  [E50840BA], AccurateRip returned [0FADA86A]
Track  4  cannot be verified as accurate (confidence 3)  [99855741], AccurateRip returned [52E1DA29]
Track  5  cannot be verified as accurate (confidence 3)  [61B4F959], AccurateRip returned [2CFB6912]
Track  6  cannot be verified as accurate (confidence 3)  [B3C8BD73], AccurateRip returned [5E1B2CB1]
Track  7  cannot be verified as accurate (confidence 3)  [EDA617A9], AccurateRip returned [D49A30DA]
Track  8  cannot be verified as accurate (confidence 3)  [040D12C6], AccurateRip returned [5F218626]
Track  9  cannot be verified as accurate (confidence 3)  [17A69550], AccurateRip returned [2D5E706E]
Track 10  cannot be verified as accurate (confidence 3)  [8B5F55F8], AccurateRip returned [043F20F5]
Track 11  cannot be verified as accurate (confidence 3)  [3F281476], AccurateRip returned [7624B39D]
Track 12  cannot be verified as accurate (confidence 3)  [25CB173A], AccurateRip returned [29C63143]
Track 13  cannot be verified as accurate (confidence 3)  [C5F0FC8F], AccurateRip returned [45E3C832]
Track 14  cannot be verified as accurate (confidence 3)  [CF84D82C], AccurateRip returned [7145AE4C]
Track 15  cannot be verified as accurate (confidence 3)  [0182CF84], AccurateRip returned [710FEE8D]
Track 16  cannot be verified as accurate (confidence 3)  [1017A851], AccurateRip returned [B23F9AB0]
     
No tracks could be verified as accurate
You may have a different pressing from the one(s) in the database

End of status report

My WebPage

Category: Classic rock | Views: 226 | Added by: Rat | Rating: 0.0/0
Total comments: 0
Only registered users can add comments.
[ Registration | Login ]

«  March 2010  »
SuMoTuWeThFrSa
 123456
78910111213
14151617181920
21222324252627
28293031


  • Israel-club.my1.ru


  • Copyright MyCorp © 2017