Thursday, 29.06.2017, 04:09
Welcome Guest | RSS
Main
Registration
Login




Vinyl [7]
Alternative [103]
Jazz [26]
Classic rock [179]
Classical [9]
Hard & Heavy [60]
Mainstream [53]
Hip-Hop [3]
Meditative [11]
New Beats [8]
Progressive [38]
Roots [25]
OST, Campilation [28]
DTS Releases [4]
Dvd Rip [7]
DVD [7]
Lossless HTTP [54]

Rate my site
Total of answers: 17


Total online: 1
Guests: 1
Users: 0

Login form

Main » 2010 » March » 29 » Status Quo - Ma Kelly's Greasy Spoon (1970)
08:54
Status Quo - Ma Kelly's Greasy Spoon (1970)

Artist - Status Quo
Album - Ma Kelly's Greasy Spoon
Genre- rock
Year- 1970
format-eac/ape

Quote

Woe betide the psychedelic groover who picked up the third album by Status Quo, dreaming of further picturesque matchstick messages! A mere three hits in a long three years had completely exhausted the bandmembers' patience with the whimsy of yore, and their ears had long since turned in other directions. It was the age, after all, of Canned Heat's relentless boogie and Black Sabbath's blistered blues, and when the Quo's first new single of 1970, the lazy throb of "Down the Dustpipe," proved that the record-buying public wasn't averse to a bit more down-home rocking, their future course was set. Ma Kelly's Greasy Spoon allies one of the most evocative titles in rock album history to one of the most familiar sights in a rock band's iconography, the cheap roadside café -- crusty ketchup, leafy tea, an overflowing ashtray, and Ma Kelly herself, cigarette clenched between unsmiling lips and a face that has seen it all and didn't like any of it. Neither do the album's contents disturb her glowering visage. From the opening trundle of "Spinning Wheel Blues" and onto the closing, lurching medley of "Is It Really Me"/"Gotta Go Home," the most underrated disc in Status Quo's entire early catalog eschewed the slightest nod in the direction of the band's past -- even "Dustpipe" didn't make the cut. (It has since been incorporated among the four bonus tracks appending the album's 1998 remastering as have "In My Chair", "Gerdundula" and an alternate version of "Junior's Wailing") But six years on, when recording their live album, the Quo were still dipping back to "Junior's Wailing," the midpoint in the greasy spoon experience, and an expressively rocking archetype for all they would later accomplish. The dark shuffle of "Lazy Poker Blues," too, unleashed specters that the band would be referencing in future days, including the boogie piano that made 1974's "Break the Rules" seem such a blast from the past. Compared to the albums that would follow, Ma Kelly is revealed as little more than a tentative blueprint for the Quo's new direction. At the time, however, it was a spellbinding shock, perhaps the last one that the Quo ever delivered. You should remember that when you play it.

01. Spinning Wheels Blues [0:03:20.48]
02. Daughter [0:03:01.48]
03. Everything [0:02:38.48]
04. Shy Fly [0:03:49.48]
05. (April) Spring, Summer and Wednesdays [0:04:13.48]
06. Junior's Wailing [0:03:34.48]
07. Lakky Lady [0:03:16.48]
08. Need Your Love [0:04:46.48]
09. Lazy Poker Blues [0:03:34.48]
10. a) Is It Really Me b) Gotta Go Home [0:09:31.48]

Code
Exact Audio Copy V0.99 prebeta 3 from 28. July 2007

EAC extraction logfile from 6. July 2008, 20:54

Status Quo / Ma Kelly's Greasy Spoon

Used drive  : TSSTcorpCD/DVDW SH-W162L   Adapter: 1  ID: 1

Read mode               : Secure
Utilize accurate stream : Yes
Defeat audio cache      : Yes
Make use of C2 pointers : No

Read offset correction                      : 6
Overread into Lead-In and Lead-Out          : No
Fill up missing offset samples with silence : Yes
Delete leading and trailing silent blocks   : No
Null samples used in CRC calculations       : Yes
Used interface                    : Native Win32 interface for Win NT & 2000

Used output format : Internal WAV Routines
Sample format      : 44.100 Hz; 16 Bit; Stereo

TOC of the extracted CD

       Track |   Start  |  Length  | Start sector | End sector   
      ---------------------------------------------------------
          1  |  0:00.00 |  3:20.48 |         0    |    15047     
          2  |  3:20.48 |  3:01.48 |     15048    |    28670     
          3  |  6:22.21 |  2:38.48 |     28671    |    40568     
          4  |  9:00.69 |  3:49.48 |     40569    |    57791     
          5  | 12:50.42 |  4:13.48 |     57792    |    76814     
          6  | 17:04.15 |  3:34.48 |     76815    |    92912     
          7  | 20:38.63 |  3:16.48 |     92913    |   107660     
          8  | 23:55.36 |  4:46.48 |    107661    |   129158     
          9  | 28:42.09 |  3:34.48 |    129159    |   145256     
         10  | 32:16.57 |  9:31.48 |    145257    |   188129     

Range status and errors

Selected range

       Filename C:\Status Quo - Ma Kelly's Greasy Spoon.by.rat.eac.ape.covers.Israel-club.my1.ru\Status Quo - Ma Kelly's Greasy Spoon.by.rat.eac.ape.covers.Israel-club.my1.ru.wav

       Peak level 99.2 %
       Range quality 99.9 %
       Copy CRC DF0EC47C
       Copy OK

No errors occurred

     
AccurateRip summary
     
Track  1  not present in database
Track  2  not present in database
Track  3  not present in database
Track  4  not present in database
Track  5  not present in database
Track  6  not present in database
Track  7  not present in database
Track  8  not present in database
Track  9  not present in database
Track 10  not present in database
     
None of the tracks are present in the AccurateRip database

End of status report

My WebPage

Category: Classic rock | Views: 337 | Added by: Rat | Rating: 0.0/0
Total comments: 0
Only registered users can add comments.
[ Registration | Login ]

«  March 2010  »
SuMoTuWeThFrSa
 123456
78910111213
14151617181920
21222324252627
28293031


  • Israel-club.my1.ru


  • Copyright MyCorp © 2017