Thursday, 14.12.2017, 02:24
Welcome Guest | RSS
Main
Registration
Login




Vinyl [7]
Alternative [103]
Jazz [26]
Classic rock [179]
Classical [9]
Hard & Heavy [60]
Mainstream [53]
Hip-Hop [3]
Meditative [11]
New Beats [8]
Progressive [38]
Roots [25]
OST, Campilation [28]
DTS Releases [4]
Dvd Rip [7]
DVD [7]
Lossless HTTP [54]

Rate my site
Total of answers: 17


Total online: 1
Guests: 1
Users: 0

Login form

Main » 2010 » March » 21 » Status Quo - In the Army Now (rem+bonus trx.)(1986)
22:40
Status Quo - In the Army Now (rem+bonus trx.)(1986)

Artist: Status Quo
Album: In the Army Now
Released: 1986
Source: Polygram tv
Genre: rock
Format: eac.ape.

Quote
Almost four years after their last studio album, and two years after Francis Rossi and Rick Parfitt agreed to relaunch the hitherto moribund band, Status Quo bounced back with an album that came as close as Christmas to restating the glories that most fans believed were buried a decade earlier. The title track sets things off in the way they mean to go on, a romping cover of a Bolland & Bolland number that could not have been further from the Quo norm if it had tried. But the band make it its own, and then keep on sparking, through an excellent cover of Ian Hunter's "Speechless," on to the hit single "Dreamin'," and peaking with the seething "Overdose." Indeed, no matter how many crimes against their own reputation may have been committed by Quo earlier in the decade, In the Army Now offered salvation and forgiveness all round. And, just for a moment there, it felt like this was one reunion that really was going to improve on its prototype.

01. Rollin' Home [0:04:24.38]
02. Calling [0:04:04.43]
03. In Your Eyes [0:05:08.50]
04. Save Me [0:04:24.49]
05. In The Army Now [0:04:41.56]
06. Dreamin' [0:02:55.44]
07. End Of The Line [0:04:59.01]
08. Invitation [0:03:16.74]
09. Red Sky [0:04:15.17]
10. Speechless [0:03:41.42]
11. Overdose [0:05:21.60]
12. Lonely [0:05:07.30]
13. Keep Me Guessing [0:04:31.15]
14. Don't Give It Up [0:04:22.20]
15. Heartburn [0:04:45.53]
16. Late Last Night [0:02:57.15]
17. Long Legged Girls [0:05:34.25]

Code
Exact Audio Copy V0.99 prebeta 3 from 28. July 2007

EAC extraction logfile from 27. July 2008, 19:44

Status Quo / In The Army Now   

Used drive  : Optiarc DVD RW AD-7170A   Adapter: 1  ID: 0

Read mode               : Secure
Utilize accurate stream : Yes
Defeat audio cache      : Yes
Make use of C2 pointers : No

Read offset correction                      : 48
Overread into Lead-In and Lead-Out          : No
Fill up missing offset samples with silence : Yes
Delete leading and trailing silent blocks   : No
Null samples used in CRC calculations       : Yes
Used interface                    : Installed external ASPI interface

Used output format : Internal WAV Routines
Sample format      : 44.100 Hz; 16 Bit; Stereo

TOC of the extracted CD

       Track |   Start  |  Length  | Start sector | End sector   
      ---------------------------------------------------------
          1  |  0:00.00 |  4:24.38 |         0    |    19837     
          2  |  4:24.38 |  4:04.43 |     19838    |    38180     
          3  |  8:29.06 |  5:08.50 |     38181    |    61330     
          4  | 13:37.56 |  4:24.49 |     61331    |    81179     
          5  | 18:02.30 |  4:41.56 |     81180    |   102310     
          6  | 22:44.11 |  2:55.44 |    102311    |   115479     
          7  | 25:39.55 |  4:59.01 |    115480    |   137905     
          8  | 30:38.56 |  3:16.74 |    137906    |   152679     
          9  | 33:55.55 |  4:15.17 |    152680    |   171821     
         10  | 38:10.72 |  3:41.42 |    171822    |   188438     
         11  | 41:52.39 |  5:21.60 |    188439    |   212573     
         12  | 47:14.24 |  5:07.30 |    212574    |   235628     
         13  | 52:21.54 |  4:31.15 |    235629    |   255968     
         14  | 56:52.69 |  4:22.20 |    255969    |   275638     
         15  | 61:15.14 |  4:45.53 |    275639    |   297066     
         16  | 66:00.67 |  2:57.15 |    297067    |   310356     
         17  | 68:58.07 |  5:34.25 |    310357    |   335431     

Range status and errors

Selected range

       Filename C:\Status Quo - In The Army Now.by.rat.eac.ape.covers.Israel-club.my1.ru\Status Quo - In The Army Now.by.rat.eac.ape.covers.Israel-club.my1.ru.wav

       Peak level 97.7 %
       Range quality 100.0 %
       Copy CRC 1E4D33A2
       Copy OK

No errors occurred

     
AccurateRip summary
     
Track  1  cannot be verified as accurate (confidence 3)  [1992B7EF], AccurateRip returned [85D27AE1]
Track  2  cannot be verified as accurate (confidence 3)  [BF1B158F], AccurateRip returned [5D1F3A84]
Track  3  cannot be verified as accurate (confidence 3)  [5CB4DF8E], AccurateRip returned [CEBEBD81]
Track  4  cannot be verified as accurate (confidence 3)  [8E1924E3], AccurateRip returned [F3FC3FC2]
Track  5  cannot be verified as accurate (confidence 3)  [D1C1719F], AccurateRip returned [94943D20]
Track  6  cannot be verified as accurate (confidence 3)  [2A7B3A76], AccurateRip returned [07DAF37E]
Track  7  cannot be verified as accurate (confidence 3)  [3223E89C], AccurateRip returned [ABB8E23A]
Track  8  cannot be verified as accurate (confidence 3)  [45F0CAE6], AccurateRip returned [C54DE595]
Track  9  cannot be verified as accurate (confidence 3)  [6ED5FF94], AccurateRip returned [D7101D1A]
Track 10  cannot be verified as accurate (confidence 3)  [1F254BA7], AccurateRip returned [159B155F]
Track 11  cannot be verified as accurate (confidence 3)  [3F8B6089], AccurateRip returned [4E86D2A5]
Track 12  cannot be verified as accurate (confidence 3)  [9A70F096], AccurateRip returned [D8536467]
Track 13  cannot be verified as accurate (confidence 3)  [7E66B6D1], AccurateRip returned [9265B7C7]
Track 14  cannot be verified as accurate (confidence 3)  [E7529027], AccurateRip returned [F457025E]
Track 15  cannot be verified as accurate (confidence 3)  [1627A29A], AccurateRip returned [3B9382FA]
Track 16  cannot be verified as accurate (confidence 3)  [15E53965], AccurateRip returned [30B958F4]
Track 17  cannot be verified as accurate (confidence 3)  [B7A35076], AccurateRip returned [76757AE9]
     
No tracks could be verified as accurate
You may have a different pressing from the one(s) in the database

End of status report

My WebPage

Category: Classic rock | Views: 244 | Added by: Rat | Rating: 0.0/0
Total comments: 0
Only registered users can add comments.
[ Registration | Login ]

«  March 2010  »
SuMoTuWeThFrSa
 123456
78910111213
14151617181920
21222324252627
28293031


  • Israel-club.my1.ru


  • Copyright MyCorp © 2017