Tuesday, 27.06.2017, 16:04
Welcome Guest | RSS
Main
Registration
Login




Vinyl [7]
Alternative [103]
Jazz [26]
Classic rock [179]
Classical [9]
Hard & Heavy [60]
Mainstream [53]
Hip-Hop [3]
Meditative [11]
New Beats [8]
Progressive [38]
Roots [25]
OST, Campilation [28]
DTS Releases [4]
Dvd Rip [7]
DVD [7]
Lossless HTTP [54]

Rate my site
Total of answers: 17


Total online: 1
Guests: 1
Users: 0

Login form

Main » 2010 » April » 2 » Status Quo - Back To Back (1983/2006 reissue, 8 bonus trx)
11:43
Status Quo - Back To Back (1983/2006 reissue, 8 bonus trx)

Artist: Status Quo
Album: Back To Back
Released: 2006
Genre: Rock/Rock'n'roll
Format: eac.ape.covers

Quote
Their unlucky 13th album, "Back To Back" was hailed as the band's most diverse album until that point when released on 25th November, 1983. For some diehard supporters, the inclusion of an emotional ballad like "Too Close To The Ground" (written by Parfitt and keyboard player Andrew Bown) and the pop-flavoured "Win Or Lose" (courtesy of Rossi and Bernie Frost) saw them guilty of venturing too far from the group's original blueprint. Regardless, "Back To Back" smashed its way into the British chart at Number Nine.

01. A Mess Of Blues (3:23)
02. Ol' Rag Blues (2:51)
03. Can't Be Done (3:11)
04. Too Close To The Ground (3:43)
05. No Contract (3:58)
06. Win Or Lose (2:35)
07. Marguerita Time (3:30)
08. Your Kind Of Love (3:28)
09. Stay The Night (3:01)
10. Going Down Town Tonight (3:39)
11. The Wanderer [bonus track] (3:28)
12. Going Down Town Tonight (single version) [bonus track] (3:38)
13. I Wonder Why [bonus track] (3:58)
14. Ol' Rag Blues (extended version) [bonus track] (4:54)
15. A Mess Of Blues (extended version) [bonus track] (4:47)
16. Cadillac Ranch (LP out-take) [bonus track] (4:14)
17. Ol' Rag Blues (Alan Lancaster version) [bonus track] (2:48)
18. The Wanderer (Sharon the Nag mix) [bonus track] (3:33)

Code
Exact Audio Copy V0.99 prebeta 3 from 28. July 2007

EAC extraction logfile from 18. May 2008, 19:42

Status Quo / Back To Back (rem.8.bonus trx)

Used drive  : Optiarc DVD RW AD-7170A   Adapter: 1  ID: 0

Read mode               : Secure
Utilize accurate stream : Yes
Defeat audio cache      : Yes
Make use of C2 pointers : No

Read offset correction                      : 48
Overread into Lead-In and Lead-Out          : No
Fill up missing offset samples with silence : Yes
Delete leading and trailing silent blocks   : No
Null samples used in CRC calculations       : Yes
Used interface                    : Installed external ASPI interface

Used output format : Internal WAV Routines
Sample format      : 44.100 Hz; 16 Bit; Stereo

TOC of the extracted CD

         Track |   Start  |  Length  | Start sector | End sector     
        ---------------------------------------------------------
            1  |  0:00.00 |  3:23.59 |         0    |    15283       
            2  |  3:23.59 |  2:51.30 |     15284    |    28138       
            3  |  6:15.14 |  3:11.60 |     28139    |    42523       
            4  |  9:26.74 |  3:43.39 |     42524    |    59287       
            5  | 13:10.38 |  3:58.46 |     59288    |    77183       
            6  | 17:09.09 |  2:35.11 |     77184    |    88819       
            7  | 19:44.20 |  3:30.10 |     88820    |   104579       
            8  | 23:14.30 |  3:28.43 |    104580    |   120222       
            9  | 26:42.73 |  3:01.62 |    120223    |   133859       
           10  | 29:44.60 |  3:39.19 |    133860    |   150303       
           11  | 33:24.04 |  3:28.00 |    150304    |   165903       
           12  | 36:52.04 |  3:38.00 |    165904    |   182253       
           13  | 40:30.04 |  3:58.51 |    182254    |   200154       
           14  | 44:28.55 |  4:54.00 |    200155    |   222204       
           15  | 49:22.55 |  4:47.63 |    222205    |   243792       
           16  | 54:10.43 |  4:14.54 |    243793    |   262896       
           17  | 58:25.22 |  2:48.63 |    262897    |   275559       
           18  | 61:14.10 |  3:33.46 |    275560    |   291580       

Range status and errors

Selected range

         Filename C:\Status.Quo.-.Back.To.Back (rem.8.bonus.trx..by.rat.eac.ape.covers.Israel-club.my1.ru\Status.Quo.-.Back.To.Back (rem.8.bonus.trx..by.rat.eac.ape.covers.Israel-club.my1.ru.wav

         Peak level 97.7 %
         Range quality 100.0 %
         Copy CRC D23EAC59
         Copy OK

No errors occurred

End of status report

My WebPage

Category: Classic rock | Views: 240 | Added by: Rat | Rating: 0.0/0
Total comments: 0
Only registered users can add comments.
[ Registration | Login ]

«  April 2010  »
SuMoTuWeThFrSa
    123
45678910
11121314151617
18192021222324
252627282930


  • Israel-club.my1.ru


  • Copyright MyCorp © 2017