Friday, 22.09.2017, 13:30
Welcome Guest | RSS
Main
Registration
Login




Vinyl [7]
Alternative [103]
Jazz [26]
Classic rock [179]
Classical [9]
Hard & Heavy [60]
Mainstream [53]
Hip-Hop [3]
Meditative [11]
New Beats [8]
Progressive [38]
Roots [25]
OST, Campilation [28]
DTS Releases [4]
Dvd Rip [7]
DVD [7]
Lossless HTTP [54]

Rate my site
Total of answers: 17


Total online: 1
Guests: 1
Users: 0

Login form

Main » 2010 » March » 31 » Status Quo - Ain't Complaining (1988)
22:46
Status Quo - Ain't Complaining (1988)

Artist: Status Quo
Album: Ain't Complaining
Release: 1988
Label: vertigo
Quality: eac.ape.covers
Genre: rock

Quote
I'm almost inclined to describe "Ain't Complaining" as a tribute album to icons of the 1980s. They borrow several styles at the expense the one they're best at. When they do perform in the manner to which we are accustomed they show little of the old spirit. This is mostly glossy pop and so-called AOR American-style rock.The most obvious resemblances are "One For The Money" (the "Miami Vice" theme), "Another Shipwreck" (Cliff in his "Wired For Sound" phase) and "I Know You're Leaving" (Phil Collins). "Everytime I Think Of You" and "Who Gets The Love" could be by Starship or

01. Ain't Complaining [0:04:39.65]
02. Everytime I Think Of You [0:03:48.35]
03. One For The Money [0:04:51.55]
04. Another Shipwreck [0:03:47.35]
05. Don't Mind If I Do [0:04:41.30]
06. I Know You're Leaving [0:04:45.02]
07. Cross That Bridge [0:03:30.43]
08. Cream Of The Crop [0:04:02.60]
09. The Loving Game [0:04:23.32]
10. Who Gets The Love? [0:05:32.48]
11. Burning Bridges [0:04:19.07]
12. Magic [0:03:51.60]

Code
Exact Audio Copy V0.99 prebeta 3 from 28. July 2007

EAC extraction logfile from 15. June 2008, 20:05

Status Quo / Ain't Complaining

Used drive  : Optiarc DVD RW AD-7170A   Adapter: 1  ID: 0

Read mode               : Secure
Utilize accurate stream : Yes
Defeat audio cache      : Yes
Make use of C2 pointers : No

Read offset correction                      : 48
Overread into Lead-In and Lead-Out          : No
Fill up missing offset samples with silence : Yes
Delete leading and trailing silent blocks   : No
Null samples used in CRC calculations       : Yes
Used interface                    : Installed external ASPI interface

Used output format : Internal WAV Routines
Sample format      : 44.100 Hz; 16 Bit; Stereo

TOC of the extracted CD

       Track |   Start  |  Length  | Start sector | End sector   
      ---------------------------------------------------------
          1  |  0:00.00 |  4:39.65 |         0    |    20989     
          2  |  4:39.65 |  3:48.35 |     20990    |    38124     
          3  |  8:28.25 |  4:51.55 |     38125    |    60004     
          4  | 13:20.05 |  3:47.35 |     60005    |    77064     
          5  | 17:07.40 |  4:41.30 |     77065    |    98169     
          6  | 21:48.70 |  4:45.02 |     98170    |   119546     
          7  | 26:33.72 |  3:30.43 |    119547    |   135339     
          8  | 30:04.40 |  4:02.60 |    135340    |   153549     
          9  | 34:07.25 |  4:23.32 |    153550    |   173306     
         10  | 38:30.57 |  5:32.48 |    173307    |   198254     
         11  | 44:03.30 |  4:19.07 |    198255    |   217686     
         12  | 48:22.37 |  3:51.60 |    217687    |   235071     

Range status and errors

Selected range

       Filename C:\Status Quo - Ain't Complaining.by.rat.eac.ape.covers.Israel-club.my1.ru\Status Quo - Ain't Complaining.by.rat.eac.ape.covers.Israel-club.my1.ru.wav

       Peak level 100.0 %
       Range quality 100.0 %
       Copy CRC 8BBFB430
       Copy OK

No errors occurred

End of status report

download

Category: Classic rock | Views: 244 | Added by: Rat | Rating: 0.0/0
Total comments: 0
Only registered users can add comments.
[ Registration | Login ]

«  March 2010  »
SuMoTuWeThFrSa
 123456
78910111213
14151617181920
21222324252627
28293031


  • Israel-club.my1.ru


  • Copyright MyCorp © 2017