Friday, 22.09.2017, 13:25
Welcome Guest | RSS
Main
Registration
Login




Vinyl [7]
Alternative [103]
Jazz [26]
Classic rock [179]
Classical [9]
Hard & Heavy [60]
Mainstream [53]
Hip-Hop [3]
Meditative [11]
New Beats [8]
Progressive [38]
Roots [25]
OST, Campilation [28]
DTS Releases [4]
Dvd Rip [7]
DVD [7]
Lossless HTTP [54]

Rate my site
Total of answers: 17


Total online: 1
Guests: 1
Users: 0

Login form

Main » 2010 » April » 1 » Status Quo - 1+9+8+2 (rem.bonus trx) (1982/2006)
23:04
Status Quo - 1+9+8+2 (rem.bonus trx) (1982/2006)

Artist: Status Quo
Album: 1+9+8+2
Released: 1982
Genre: Rock'n'roll
Format: eac-ape.covers

Quote
It can be (and often is) argued that Status Quo entered the 1980s as little more than a parody of the l'il ol' boogie band from Butlins that once so-dominated the U.K. charts. "Rocking All Over the World," almost five-years-earlier, was the peak of their endeavors; everything since then was little more than a parody (at best), or a warmed-up revival (at most). 1+9+8+2 didn't alter that dour scenario. Dominated by a relatively sincere recounting of "I Love Rock and Roll," and the "Dear John" single that became the band's umpteenth hit (and umpteenth soundalike), it rattles along inoffensively enough, but you cannot compare it with any of the band's greatest triumphs — just one more album from the band that's been going forever, and if it's already a part of your Quo collection, betcha don't play it too often!

01. She Don't Fool Me
02. Young Pretender
03. Get Out and Walk
04. Jealousy
05. I Love Rock & Roll
06. Resurrection
07. Dear John
08. Doesn't Matter
09. I Want the World to Know
10. I Should Have Known
11. Big Man
12. Calling the Shots [bonus]
13. Hold You Back (live at the N.E.C.) [bonus]
14. Over the Edge (live at the N.E.C.) [bonus]

Code
Exact Audio Copy V0.99 prebeta 3 from 28. July 2007

EAC extraction logfile from 9. June 2008, 12:30

Status Quo / 1+9+8+2

Used drive  : TSSTcorpCD/DVDW SH-W162L   Adapter: 1  ID: 1

Read mode               : Secure
Utilize accurate stream : Yes
Defeat audio cache      : Yes
Make use of C2 pointers : No

Read offset correction                      : 6
Overread into Lead-In and Lead-Out          : No
Fill up missing offset samples with silence : Yes
Delete leading and trailing silent blocks   : No
Null samples used in CRC calculations       : Yes
Used interface                    : Installed external ASPI interface

Used output format : Internal WAV Routines
Sample format      : 44.100 Hz; 16 Bit; Stereo

TOC of the extracted CD

       Track |   Start  |  Length  | Start sector | End sector   
      ---------------------------------------------------------
          1  |  0:00.00 |  4:37.27 |         0    |    20801     
          2  |  4:37.27 |  3:36.06 |     20802    |    37007     
          3  |  8:13.33 |  3:12.24 |     37008    |    51431     
          4  | 11:25.57 |  2:56.20 |     51432    |    64651     
          5  | 14:22.02 |  3:18.58 |     64652    |    79559     
          6  | 17:40.60 |  3:57.44 |     79560    |    97378     
          7  | 21:38.29 |  3:14.44 |     97379    |   111972     
          8  | 24:52.73 |  3:40.58 |    111973    |   128530     
          9  | 28:33.56 |  3:26.45 |    128531    |   144025     
         10  | 32:00.26 |  3:33.42 |    144026    |   160042     
         11  | 35:33.68 |  3:45.64 |    160043    |   176981     
         12  | 39:19.57 |  4:53.11 |    176982    |   198967     
         13  | 44:12.68 |  4:40.72 |    198968    |   220039     
         14  | 48:53.65 |  4:20.24 |    220040    |   239563     

Range status and errors

Selected range

       Filename C:\Status Quo - 1+9+8+2.by.rat.eac.ape.covers.Israel-club.my1.ru\Status Quo - 1+9+8+2.by.rat.eac.ape.covers.Israel-club.my1.ru.wav

       Peak level 97.7 %
       Range quality 100.0 %
       Copy CRC 0BAF8FD5
       Copy OK

No errors occurred

End of status report

My WebPage

Category: Classic rock | Views: 250 | Added by: Rat | Rating: 0.0/0
Total comments: 0
Only registered users can add comments.
[ Registration | Login ]

«  April 2010  »
SuMoTuWeThFrSa
    123
45678910
11121314151617
18192021222324
252627282930


  • Israel-club.my1.ru


  • Copyright MyCorp © 2017