Monday, 11.12.2017, 18:52
Welcome Guest | RSS
Main
Registration
Login




Vinyl [7]
Alternative [103]
Jazz [26]
Classic rock [179]
Classical [9]
Hard & Heavy [60]
Mainstream [53]
Hip-Hop [3]
Meditative [11]
New Beats [8]
Progressive [38]
Roots [25]
OST, Campilation [28]
DTS Releases [4]
Dvd Rip [7]
DVD [7]
Lossless HTTP [54]

Rate my site
Total of answers: 17


Total online: 1
Guests: 1
Users: 0

Login form

Main » 2010 » March » 29 » Slade - We Are All Crazy (1972)
08:51
Slade - We Are All Crazy (1972)

Artist: Slade
Album: We Are All Crazy
Release: 1972
Label: FLASHBACK
Quality: eac.ape.covers
Genre: Glam rock

Quote
Slade may have never truly caught on with American audiences (often narrow-mindedly deemed "too British-sounding"), but the group became a sensation in their homeland with their anthemic brand of glam rock in the early '70s, as they scored a staggering 11 Top Five hits in a four-year span from 1971 to 1974 (five of which topped the charts). Comprised of singer/guitarist Noddy Holder (born Neville Holder, June 15, 1946 in Walsall, West Midlands, England), guitarist Dave Hill (born April 4, 1946, in Fleet Castle, Devon, England), bassist Jimmy Lea (born June 14, 1949, Wolverhampton, West Midlands, England), and drummer Don Powell (born September 10, 1946, Bilston, West Midlands, England)


01. Hear Me Calling [0:05:18.17]
02. Like A Shot From my Gun [0:03:22.38]
03. Look Wot You Done [0:03:34.10]
04. Keep On Rocking [0:03:50.22]
05. Move Over [0:04:36.15]
06. Mama We're All Crazee Now [0:03:25.08]
07. Lady Be Good [0:01:02.62]
08. Cos I Love You [0:05:22.50]
09. Take Me Back 'Ome [0:04:16.50]
10. Get Down And Get With It [0:06:43.08]
11. Good Golly Miss Molly [0:03

Code

Exact Audio Copy V0.99 prebeta 3 from 28. July 2007

EAC extraction logfile from 22. June 2008, 14:47

Slade / We Are All Crazy

Used drive  : TSSTcorpCD/DVDW SH-W162L   Adapter: 1  ID: 1

Read mode               : Secure
Utilize accurate stream : Yes
Defeat audio cache      : Yes
Make use of C2 pointers : No

Read offset correction                      : 6
Overread into Lead-In and Lead-Out          : No
Fill up missing offset samples with silence : Yes
Delete leading and trailing silent blocks   : No
Null samples used in CRC calculations       : Yes
Used interface                    : Installed external ASPI interface

Used output format : Internal WAV Routines
Sample format      : 44.100 Hz; 16 Bit; Stereo

TOC of the extracted CD

       Track |   Start  |  Length  | Start sector | End sector   
      ---------------------------------------------------------
          1  |  0:00.00 |  5:18.17 |         0    |    23866     
          2  |  5:18.17 |  3:22.38 |     23867    |    39054     
          3  |  8:40.55 |  3:34.10 |     39055    |    55114     
          4  | 12:14.65 |  3:50.22 |     55115    |    72386     
          5  | 16:05.12 |  4:36.15 |     72387    |    93101     
          6  | 20:41.27 |  3:25.08 |     93102    |   108484     
          7  | 24:06.35 |  1:02.62 |    108485    |   113196     
          8  | 25:09.22 |  5:22.50 |    113197    |   137396     
          9  | 30:31.72 |  4:16.50 |    137397    |   156646     
         10  | 34:48.47 |  6:43.08 |    156647    |   186879     
         11  | 41:31.55 |  3:49.70 |    186880    |   204124     

Range status and errors

Selected range

       Filename C:\Slade - We Are All Crazy..rat.eac.ape.covers.Israel-club.my1.ru\Slade - We Are All Crazy..rat.eac.ape.covers.Israel-club.my1.ru.wav

       Peak level 98.8 %
       Range quality 100.0 %
       Copy CRC 75BE8893
       Copy OK

No errors occurred

End of status report

My WebPage

Category: Classic rock | Views: 364 | Added by: Rat | Rating: 0.0/0
Total comments: 0
Only registered users can add comments.
[ Registration | Login ]

«  March 2010  »
SuMoTuWeThFrSa
 123456
78910111213
14151617181920
21222324252627
28293031


  • Israel-club.my1.ru


  • Copyright MyCorp © 2017