Tuesday, 24.10.2017, 04:04
Welcome Guest | RSS
Main
Registration
Login




Vinyl [7]
Alternative [103]
Jazz [26]
Classic rock [179]
Classical [9]
Hard & Heavy [60]
Mainstream [53]
Hip-Hop [3]
Meditative [11]
New Beats [8]
Progressive [38]
Roots [25]
OST, Campilation [28]
DTS Releases [4]
Dvd Rip [7]
DVD [7]
Lossless HTTP [54]

Rate my site
Total of answers: 17


Total online: 1
Guests: 1
Users: 0

Login form

Main » 2011 » December » 16 » Sky - Cadmium (1983, Ariola Records)
08:38
Sky - Cadmium (1983, Ariola Records)


 
Artist: Sky 
Album: Cadmium 
Released: 1983 
Source: Ariola Records (610 103-222, West Germany) 
Genre: Eclectic Prog; Instrumental Rock 
Format: zip.wv (tagged, 298 MB) <- WavPack (high), cue, log, scans 

Quote
Quote
Review: The last album to feature John Williams, its pre-Christmas release was not only an attempt to capture the gift-buying market, but reflected the content of perhaps the most accomplished work the band had done since Francis Monkman's departure. Opening with an interpretation of a Christmas classical music stalwart (including sleighbells!), with track titles like "Mother Russia" and "A Girl in Winter", how can one not associate this with cold, wet nights (preferably snow instead of rain)? Most of Sky's classical reworkings leave me cold, but Troika is one of the exceptions. Herbie offers his almost-contracual "silly" piece to the album in the shape of "Telex from Peru", and the album's quiet piece comes courtesy of a rare Fry composition, "Then and Now". Eminently listenable, full of good tunes, and more occasions than most for the individuals to display prowess with their chosen instruments, not to mention a replacement for "Hotta" as the encore piece when playing live, the aptly-named "Son of Hotta". --plum.cr
eam.org

Track List: 

Troika 
Fayre 
A Girl in Winter 
Mother Russia 
Telex from Peru 
The Boy from Dundee 
Night 
Then and Now 
Return to Me 
Son of Hotta 

Total Playing Time: 48' 48" 

Log: 
Code: 
Code
]Exact Audio Copy V1.0 beta 3 from 29. August 2011 

EAC extraction logfile from 5. November 2011, 21:37 

Sky / Cadmium 

Used drive  : PLEXTOR DVDR   PX-820SA   Adapter: 3  ID: 0 

Read mode               : Secure 
Utilize accurate stream : Yes 
Defeat audio cache      : Yes 
Make use of C2 pointers : No 

Read offset correction                      : 48 
Overread into Lead-In and Lead-Out          : No 
Fill up missing offset samples with silence : Yes 
Delete leading and trailing silent blocks   : No 
Null samples used in CRC calculations       : Yes 
Used interface                    : Installed external ASPI interface 

Used output format : Internal WAV Routines 
Sample format      : 44.100 Hz; 16 Bit; Stereo 

TOC of the extracted CD 

      Track |   Start  |  Length  | Start sector | End sector  
     --------------------------------------------------------- 
         1  |  0:00.33 |  2:59.32 |        33    |    13489    
         2  |  2:59.65 |  3:10.20 |     13490    |    27759    
         3  |  6:10.10 |  3:37.53 |     27760    |    44087    
         4  |  9:47.63 |  6:58.32 |     44088    |    75469    
         5  | 16:46.20 |  8:14.08 |     75470    |   112527    
         6  | 25:00.28 |  5:33.52 |    112528    |   137554    
         7  | 30:34.05 |  4:09.15 |    137555    |   156244    
         8  | 34:43.20 |  3:22.40 |    156245    |   171434    
         9  | 38:05.60 |  3:37.70 |    171435    |   187779    
        10  | 41:43.55 |  7:04.50 |    187780    |   219629    

Range status and errors 

Selected range 

      Filename C:\supang\Sky -1983- Cadmium {Ariola 610 103-222}\Sky - Cadmium.wav 

      Peak level 88.9 % 
      Extraction speed 3.7 X 
      Range quality 100.0 % 
      Test CRC 3CDB826C 
      Copy CRC 3CDB826C 
      Copy OK 

No errors occurred 

   
AccurateRip summary 
   
Track  1  accurately ripped (confidence 8)  [F3A34994]  (AR v2) 
Track  2  accurately ripped (confidence 8)  [EA976737]  (AR v2) 
Track  3  accurately ripped (confidence 8)  [A33F2910]  (AR v2) 
Track  4  accurately ripped (confidence 8)  [FF0BE72A]  (AR v2) 
Track  5  accurately ripped (confidence 8)  [6D5D44A0]  (AR v2) 
Track  6  accurately ripped (confidence 8)  [909BCFF2]  (AR v2) 
Track  7  accurately ripped (confidence 8)  [FEB02881]  (AR v2) 
Track  8  accurately ripped (confidence 8)  [9BB46CB9]  (AR v2) 
Track  9  accurately ripped (confidence 8)  [D8B8498B]  (AR v2) 
Track 10  accurately ripped (confidence 8)  [72875020]  (AR v2) 
   
All tracks accurately ripped 

End of status report 

==== Log checksum 8B19CD5AEEE1C4066F013CE7A40BB0CF082222ABCD97A3728EB13B989162663E ==== 
Now you can see what's

Category: Progressive | Views: 374 | Added by: Rat | Rating: 0.0/0
Total comments: 0
Only registered users can add comments.
[ Registration | Login ]

«  December 2011  »
SuMoTuWeThFrSa
    123
45678910
11121314151617
18192021222324
25262728293031


  • Israel-club.my1.ru


  • Copyright MyCorp © 2017