Saturday, 19.08.2017, 13:06
Welcome Guest | RSS
Main
Registration
Login




Vinyl [7]
Alternative [103]
Jazz [26]
Classic rock [179]
Classical [9]
Hard & Heavy [60]
Mainstream [53]
Hip-Hop [3]
Meditative [11]
New Beats [8]
Progressive [38]
Roots [25]
OST, Campilation [28]
DTS Releases [4]
Dvd Rip [7]
DVD [7]
Lossless HTTP [54]

Rate my site
Total of answers: 17


Total online: 1
Guests: 1
Users: 0

Login form

Main » 2010 » July » 3 » ShamRain - Goodbye to All That (2007)
11:38
ShamRain - Goodbye to All That (2007)

Artist: ShamRain
Album: Goodbye to All That
Released: 2007
Source: emi records
Genre: goth rock
Format: eac.ape covers

Quote
One gloomy night, October 2000, two Finns come up with an idea of a band playing slow, dreamlike material. During the winter, some songs are written, and afterwards recorded. At this point this two man orchestra is forced to grow. They need someone to vocalize their words scribbled down in distress. Luckily, a suitable interpreter is close to be found. In autumn 2001 this trio shuts off in a bunker deep underground, to give birth to the first ShamRain - release. Pieces EP finally sees the light of day the next February.
In 2002 more songs were written, and a full length album planned. The orchestra keeps growing slowly, as their first permanent guitarist joins. In the beginning of 2003, the band signs a record deal with an Italian label, Watch Me Fall - Records. The recordings of a debut album, Empty World Excursion, take place during the summer and autumn. By this time, the bands music has evolved into a combination of dark melancholic rock and slow, ethereal elements. EWE is put out by WMF in December 2003 and gains a lot of good reviews.
The following year, the band records a few unused songs written for EWE and The Cure - cover song 'Charlotte Sometimes. 'Charlotte' is released in a The Cure - tribute album 'Other Voices', and other songs as a 7" vinyl, simply called the "ShamRain EP". Their own label UTU Music puts out the vinyl. Also new songs are written during the spring and summer. In autumn 2004, demo sessions for the 2nd album slowly begin and 13 new songs get recorded. During the sessions a second guitarist is recruited to enforce the band. The deal with WMF is dissolved and a new deal is made with Finnish label Firebox - Records. In December recordings of a new album finally get started at Akun Tehdas and the sessions stretch to last almost 4 months, before getting the final touch at FinnVox studios. The album is titled 'Someplace Else' and it includes some new elements, still being a logical sequel to EWE. And as EWE, 'Someplace Else' also gains a lot of great feedback, including many 'full points' reviews.
Autumn 2005 Shamrain records demos of new songs, that together with unused songs from the 'Someplace Else' - sessions are to form the next SR - release, 'Deeper into the night' - MCD. During the winter ShamRain records the MCD and finally plays it's first gigs. Deeper into the night is released April 2006 revealing ShamRain more uptempo than ever, whilst maintaining the quiet and slow moments that make their sound unique. 'Deeper into the night' hits Finnish single charts at position 7.
While getting the songs together for the 3rd album, Shamrain is offered a deal by Spikefarm Records. As soon as the deal is sorted out, the band escapes the summer brightness to the studio. The sessions turn out to be the hardest Shamrain - sessions ever. It takes a lot of despair and disagreements, not to mention time, to get the album finalized, but it seems to be worth it. The new album represents the band more challenging and varieting as never before. The basic, ethereal SR-elements are still there, while the progress is getting the band into more rocking scales in the vein of British legends, Radiohead, The Cure, Placebo and Porcupine Tree. The album is titled 'Goodbye to All That' and released 31.10.2007. Album enters the official Finnish charts at position 39.

01. Holding The Earth [0:04:02.21]
02. Raindrops [0:04:30.22]
03. Ghosts I See [0:07:07.72]
04. Passing Shadows [0:03:37.11]
05. Shallow Delusion [0:04:15.73]
06. Stars Will Fall [0:04:55.14]
07. Silent Lullaby [0:03:51.37]
08. Evangeline [0:06:08.20]
09. No One Remembers Your Name [0:04:00.40]
10. Goodbyes Painted Black [0:07:20.00]

Code

Exact Audio Copy V0.99 prebeta 3 from 28. July 2007

EAC extraction logfile from 25. April 2008, 8:43

ShamRain / Goodbye To All That

Used drive  : TSSTcorpCD/DVDW SH-W162L   Adapter: 1  ID: 1

Read mode               : Secure
Utilize accurate stream : Yes
Defeat audio cache      : Yes
Make use of C2 pointers : No

Read offset correction                      : 6
Overread into Lead-In and Lead-Out          : No
Fill up missing offset samples with silence : Yes
Delete leading and trailing silent blocks   : No
Null samples used in CRC calculations       : Yes
Used interface                    : Installed external ASPI interface

Used output format : Internal WAV Routines
Sample format      : 44.100 Hz; 16 Bit; Stereo

TOC of the extracted CD

       Track |   Start  |  Length  | Start sector | End sector   
      ---------------------------------------------------------
          1  |  0:00.00 |  4:02.21 |         0    |    18170     
          2  |  4:02.21 |  4:30.22 |     18171    |    38442     
          3  |  8:32.43 |  7:07.72 |     38443    |    70539     
          4  | 15:40.40 |  3:37.11 |     70540    |    86825     
          5  | 19:17.51 |  4:15.73 |     86826    |   106023     
          6  | 23:33.49 |  4:55.14 |    106024    |   128162     
          7  | 28:28.63 |  3:51.37 |    128163    |   145524     
          8  | 32:20.25 |  6:08.20 |    145525    |   173144     
          9  | 38:28.45 |  4:00.40 |    173145    |   191184     
         10  | 42:29.10 |  7:20.00 |    191185    |   224184     

Range status and errors

Selected range

       Filename C:\ShamRain - Goodbye To All That..by.rat.eac.ape.covers.Israel-club.my1.ru\ShamRain - Goodbye To All That..by.rat.eac.ape.covers.Israel-club.my1.ru.wav

       Peak level 100.0 %
       Range quality 100.0 %
       Copy CRC 45B37E00
       Copy OK

No errors occurred

End of status report

My WebPage

Category: Alternative | Views: 202 | Added by: Rat | Rating: 0.0/0
Total comments: 0
Only registered users can add comments.
[ Registration | Login ]

«  July 2010  »
SuMoTuWeThFrSa
    123
45678910
11121314151617
18192021222324
25262728293031


  • Israel-club.my1.ru


  • Copyright MyCorp © 2017