Saturday, 24.06.2017, 07:10
Welcome Guest | RSS
Main
Registration
Login




Vinyl [7]
Alternative [103]
Jazz [26]
Classic rock [179]
Classical [9]
Hard & Heavy [60]
Mainstream [53]
Hip-Hop [3]
Meditative [11]
New Beats [8]
Progressive [38]
Roots [25]
OST, Campilation [28]
DTS Releases [4]
Dvd Rip [7]
DVD [7]
Lossless HTTP [54]

Rate my site
Total of answers: 17


Total online: 1
Guests: 1
Users: 0

Login form

Main » 2011 » January » 15 » Sandra - Back To Life (2009)
12:51
Sandra - Back To Life (2009)

Artist: Sandra 
Title Of Album: Back To Life 
Year Of Release: 27-03-2009 
Label: Virgin 
Genre: Pop / Dance 
Quality: Eac-Flac 
Total Time: 52:55 min 
Total Size: 384 MB

Quote
2009 release from the celebrated German-born Pop vocalist, best known outside of Europe for her work with former husband Michael Cretu's musical project Enigma. Produced by Jens Gad, Back To Life includes the single 'In A Heartbeat' plus 'The Night Is Still Young', a duet with Modern Talking's Thomas Anders. Virgin.

Tracklist 

01. R U Feeling Me 
02. Once In A Lifetime 
03. In A Heartbeat 
04. The Night Is Still Young 
05. Just Like Breathing 
06. Never Before 
07. Alyways On My Mind 
08. Behind Those Words 
09. What If 
10. Say Love 
11. Put Some 80ies In It 
12. These Moments 
13. I Want You 
14. Tête à Tête 
15. Who I Am

Code
Exact Audio Copy V0.99 prebeta 4 from 23. January 2008 

EAC extraction logfile from 13. July 2009, 17:04 

Sandra / Back To Life 

Used drive  : Optiarc DVD RW AD-7170A   Adapter: 3  ID: 0 

Read mode               : Secure 
Utilize accurate stream : Yes 
Defeat audio cache      : Yes 
Make use of C2 pointers : No 

Read offset correction                      : 48 
Overread into Lead-In and Lead-Out          : No 
Fill up missing offset samples with silence : Yes 
Delete leading and trailing silent blocks   : No 
Null samples used in CRC calculations       : Yes 
Used interface                    : Installed external ASPI interface 

Used output format : Internal WAV Routines 
Sample format      : 44.100 Hz; 16 Bit; Stereo 

TOC of the extracted CD 

       Track |   Start  |  Length  | Start sector | End sector   
      --------------------------------------------------------- 
          1  |  0:00.00 |  3:42.67 |         0    |    16716     
          2  |  3:42.67 |  3:50.37 |     16717    |    34003     
          3  |  7:33.29 |  3:38.38 |     34004    |    50391     
          4  | 11:11.67 |  3:21.32 |     50392    |    65498     
          5  | 14:33.24 |  3:14.00 |     65499    |    80048     
          6  | 17:47.24 |  3:45.55 |     80049    |    96978     
          7  | 21:33.04 |  3:20.32 |     96979    |   112010     
          8  | 24:53.36 |  3:03.49 |    112011    |   125784     
          9  | 27:57.10 |  2:49.41 |    125785    |   138500     
         10  | 30:46.51 |  3:29.17 |    138501    |   154192     
         11  | 34:15.68 |  3:23.44 |    154193    |   169461     
         12  | 37:39.37 |  3:30.53 |    169462    |   185264     
         13  | 41:10.15 |  3:53.12 |    185265    |   202751     
         14  | 45:03.27 |  3:45.22 |    202752    |   219648     
         15  | 48:48.49 |  4:06.23 |    219649    |   238121     

Range status and errors 

Selected range 

       Filename C:\Documents and Settings\Мои документы\Sandra - Back To Life.by.rat.eac.flac.covers.Israel-club.my1.ru\Sandra - Back To Life.by.rat.eac.flac.covers.Israel-club.my1.ru.wav 

       Peak level 99.8 % 
       Range quality 100.0 % 
       Copy CRC A70DE5E1 
       Copy OK 

No errors occurred 

End of status report

My WebPage

Category: Mainstream | Views: 244 | Added by: Rat | Rating: 0.0/0
Total comments: 0
Only registered users can add comments.
[ Registration | Login ]

«  January 2011  »
SuMoTuWeThFrSa
      1
2345678
9101112131415
16171819202122
23242526272829
3031


  • Israel-club.my1.ru


  • Copyright MyCorp © 2017