Friday, 23.06.2017, 21:01
Welcome Guest | RSS
Main
Registration
Login




Vinyl [7]
Alternative [103]
Jazz [26]
Classic rock [179]
Classical [9]
Hard & Heavy [60]
Mainstream [53]
Hip-Hop [3]
Meditative [11]
New Beats [8]
Progressive [38]
Roots [25]
OST, Campilation [28]
DTS Releases [4]
Dvd Rip [7]
DVD [7]
Lossless HTTP [54]

Rate my site
Total of answers: 17


Total online: 1
Guests: 1
Users: 0

Login form

Main » 2010 » December » 5 » Riot - Rock City (1977)
07:19
Riot - Rock City (1977)

Artist: Riot 
Album: Levittown (Go Out Dancing-Part II) 
Released: Rock City 
Genre: Heavy Metal 
Format: eac.ape covers

Quote
If a line could be drawn that connected '70s hard rock superstars like Boston and Thin Lizzy with '80s pop-metal gods Def Leppard, it would almost certainly pass through Riot. The group's surprising debut was originally issued in Japan only, which could explain why this 1977 release isn't more widely admired by rock/metal fans outside of Asia. Rock City boasts tight production and songwriting, and a melodic flair that approximates artists associated with the New Wave of British Heavy Metal. A pop-driven arena rock vibe propels standouts like the Boston-influenced "Tokyo Rose" and "This Is What I Get." A few tracks with potential, like "Overdrive," are limited by repetitive choruses and the thin guitar tones of Mark Reale and L.A. Kouvaris. Despite these setbacks, vocalist Guy Speranza's bell-like voice and the Riot's conceptual ambition solidify Rock City. While bandleader Reale was hurting for the virtuoso resources of a Thom Scholz, everyone else making this kind of record was similarly afflicted when compared to Boston's studio innovator. When judged alongside other young American bands caught between Boston's pop, Aerosmith's boogie, and the coming metal revolution, Riot were quite accomplished, and Rock City is a limited, but commendable first effort from the New York outfit.

01. Desperation [0:02:42.20] 
02. Warrior [0:03:49.47] 
03. Rock City [0:03:30.23] 
04. Overdrive [0:04:12.17] 
05. Angel [0:03:37.00] 
06. Tokyo Rose [0:04:19.68] 
07. Heart Of Fire [0:03:01.17] 
08. Gypsy Queen [0:03:56.33] 
09. This Is What I Get [0:04:10.17]

Code
Exact Audio Copy V0.99 prebeta 3 from 28. July 2007 

EAC extraction logfile from 5. May 2008, 21:32 

Riot / Rock City 

Used drive  : Optiarc DVD RW AD-7170A   Adapter: 1  ID: 0 

Read mode               : Secure 
Utilize accurate stream : Yes 
Defeat audio cache      : Yes 
Make use of C2 pointers : No 

Read offset correction                      : 48 
Overread into Lead-In and Lead-Out          : No 
Fill up missing offset samples with silence : Yes 
Delete leading and trailing silent blocks   : No 
Null samples used in CRC calculations       : Yes 
Used interface                    : Installed external ASPI interface 

Used output format : Internal WAV Routines 
Sample format      : 44.100 Hz; 16 Bit; Stereo 

TOC of the extracted CD 

       Track |   Start  |  Length  | Start sector | End sector   
      --------------------------------------------------------- 
          1  |  0:00.00 |  2:42.20 |         0    |    12169     
          2  |  2:42.20 |  3:49.47 |     12170    |    29391     
          3  |  6:31.67 |  3:30.23 |     29392    |    45164     
          4  | 10:02.15 |  4:12.17 |     45165    |    64081     
          5  | 14:14.32 |  3:37.00 |     64082    |    80356     
          6  | 17:51.32 |  4:19.68 |     80357    |    99849     
          7  | 22:11.25 |  3:01.17 |     99850    |   113441     
          8  | 25:12.42 |  3:56.33 |    113442    |   131174     
          9  | 29:09.00 |  4:10.17 |    131175    |   149941     

Range status and errors 

Selected range 

       Filename C:\Riot.-.Rock.City..by.rat.eac.ape.covers.israel-club.my1.ru\Riot.-.Rock.City..by.rat.eac.ape.covers.israel-club.my1.ru.wav 

       Peak level 98.9 % 
       Range quality 100.0 % 
       Copy CRC 075DC085 
       Copy OK 

No errors occurred 

End of status report 

My WebPage

Category: Hard & Heavy | Views: 325 | Added by: Rat | Rating: 0.0/0
Total comments: 0
Only registered users can add comments.
[ Registration | Login ]

«  December 2010  »
SuMoTuWeThFrSa
   1234
567891011
12131415161718
19202122232425
262728293031


  • Israel-club.my1.ru


  • Copyright MyCorp © 2017