Friday, 23.06.2017, 22:50
Welcome Guest | RSS
Main
Registration
Login




Vinyl [7]
Alternative [103]
Jazz [26]
Classic rock [179]
Classical [9]
Hard & Heavy [60]
Mainstream [53]
Hip-Hop [3]
Meditative [11]
New Beats [8]
Progressive [38]
Roots [25]
OST, Campilation [28]
DTS Releases [4]
Dvd Rip [7]
DVD [7]
Lossless HTTP [54]

Rate my site
Total of answers: 17


Total online: 1
Guests: 1
Users: 0

Login form

Main » 2010 » February » 20 » Rick Springfield - Christmas With You (2008)
23:47
Rick Springfield - Christmas With You (2008)

Country:USA
Released: 2008
Style: rock/power pop/rock
Audio: EAC/APE/CUE/LOG

Quote
It seems that any veteran recording artist eventually winds up recording their own holiday album, so it makes perfect sense that Rick Springfield finally got around to releasing his own in 2007 with Christmas with You. Apart from the original title song, Springfield relies on standards here, with traditional carols far outweighing relatively recent secular holiday tunes; in fact, only "I'll Be Home for Christmas" can qualify in the latter category. Springfield not only sticks to the classics, he gives many of these spare, baroque acoustic treatments that emphasize their folk origin. These stark arrangements combined with the clean production can give Christmas with You almost a new age feel, but Springfield's raspy voice prevents this from getting spacy, and he does cut loose on a surf music version of "Deck the Halls" (thereby earning the subtitle "With Boughs of Longboards") and gives "I'll Be Home for Christmas" a bit of a goofy doo wop feel. The album could use just a little bit more of this dose of fun, but in its measured, inventive way, Christmas with You is far from the standard holiday album, and it's hard not to admire that Springfield opted for something different on his Christmas record than the same warm, toasty arrangements of the same songs that show up on most seasonal albums by veteran artists.

01. Christmas With You [0:03:00.22]
02. The First Noel [0:03:26.23]
03. Hark The Herald Angels Sing [0:03:39.02]
04. What Child Is This? [0:02:52.35]
05. God Rest Ye Merry Gentlemen [0:03:21.40]
06. It Came Upon A Midnight Clear [0:03:12.67]
07. Away In A Manger [0:03:50.11]
08. O Come All Ye Faithful [0:03:25.71]
09. Carol Of The Bells [0:02:32.74]
10. Do You Hear What I Hear? [0:03:02.05]
11. I'll Be Home For Christmas [0:03:01.62]
12. Silent Night [0:02:47.19]
13. Oh Little Town Of Bethlehem [0:02:56.69]
14. I Saw Three Ships [0:01:56.05]
15. Deck The Halls (With Boughs Of Longboards) [0:02:15.72]
16. White Christmas [0:03:21.64]

Code
Exact Audio Copy V0.99 prebeta 4 from 23. January 2008

EAC extraction logfile from 2. February 2009, 19:54

Rick Springfield / Christmas With You

Used drive  : TSSTcorpCD/DVDW SH-W162L   Adapter: 3  ID: 1

Read mode               : Secure
Utilize accurate stream : Yes
Defeat audio cache      : Yes
Make use of C2 pointers : No

Read offset correction                      : 6
Overread into Lead-In and Lead-Out          : No
Fill up missing offset samples with silence : Yes
Delete leading and trailing silent blocks   : No
Null samples used in CRC calculations       : Yes
Used interface                    : Installed external ASPI interface

Used output format : Internal WAV Routines
Sample format      : 44.100 Hz; 16 Bit; Stereo

TOC of the extracted CD

       Track |   Start  |  Length  | Start sector | End sector   
      ---------------------------------------------------------
          1  |  0:00.00 |  3:00.22 |         0    |    13521     
          2  |  3:00.22 |  3:26.23 |     13522    |    28994     
          3  |  6:26.45 |  3:39.02 |     28995    |    45421     
          4  | 10:05.47 |  2:52.35 |     45422    |    58356     
          5  | 12:58.07 |  3:21.40 |     58357    |    73471     
          6  | 16:19.47 |  3:12.67 |     73472    |    87938     
          7  | 19:32.39 |  3:50.11 |     87939    |   105199     
          8  | 23:22.50 |  3:25.71 |    105200    |   120645     
          9  | 26:48.46 |  2:32.74 |    120646    |   132119     
         10  | 29:21.45 |  3:02.05 |    132120    |   145774     
         11  | 32:23.50 |  3:01.62 |    145775    |   159411     
         12  | 35:25.37 |  2:47.19 |    159412    |   171955     
         13  | 38:12.56 |  2:56.69 |    171956    |   185224     
         14  | 41:09.50 |  1:56.05 |    185225    |   193929     
         15  | 43:05.55 |  2:15.72 |    193930    |   204126     
         16  | 45:21.52 |  3:21.64 |    204127    |   219265     

Range status and errors

Selected range

       Filename C:\Rick Springfield - Christmas With You.by.rat.eac.ape.covers.Israel-club.my1.ru\Rick Springfield - Christmas With You.by.rat.eac.ape.covers.Israel-club.my1.ru.wav

       Peak level 99.9 %
       Range quality 100.0 %
       Copy CRC EF4DA8AC
       Copy OK

No errors occurred

End of status report

My WebPage

Category: Classic rock | Views: 273 | Added by: Rat | Rating: 0.0/0
Total comments: 0
Only registered users can add comments.
[ Registration | Login ]

«  February 2010  »
SuMoTuWeThFrSa
 123456
78910111213
14151617181920
21222324252627
28


  • Israel-club.my1.ru


  • Copyright MyCorp © 2017