Sunday, 22.10.2017, 08:26
Welcome Guest | RSS
Main
Registration
Login




Vinyl [7]
Alternative [103]
Jazz [26]
Classic rock [179]
Classical [9]
Hard & Heavy [60]
Mainstream [53]
Hip-Hop [3]
Meditative [11]
New Beats [8]
Progressive [38]
Roots [25]
OST, Campilation [28]
DTS Releases [4]
Dvd Rip [7]
DVD [7]
Lossless HTTP [54]

Rate my site
Total of answers: 17


Total online: 1
Guests: 1
Users: 0

Login form

Main » 2010 » February » 5 » Ricchi & Poveri - Mamma Maria (1982)
23:29
Ricchi & Poveri - Mamma Maria (1982)

Artist: Ricchi & Poveri
Album: Mamma Maria
Released: 1982
Source: Baby records
Genre: pop/dance
Format: Eac/ape/covers

Quote
Ricchi e Poveri is one of the most famous Italian pop music groups in Europe and Latin America. In 1970s and 1980s it have sold over 20 million records. The group was formed in 1968 by Franco Gatti, Angela Brambati, Angelo Sotgiu and Marina Occhiena. Their first public appearance was in Cantagiro 1968 with "L'ultimo amore". Ricchi e Poveri has participated in Sanremo Music Festival several times since 1970. Ricchi e Poveri represented Italy in Eurovision Song Contest 1978 with song "Questo Amore" finishing 12th with 53 points. In 1981 Marina Occhiena left the group. Their hits include "Che sarà" which was also performed by José Feliciano and Jimmy Fontana.

It has recorded in Italian and Spanish and boasts some of the most popular Italian songs of the 80s and 90s such as "Mamma Maria", "Se m'innamoro", "Made in Italy", "M'innamoro di te" and many others.

01. Mamma Maria [0:02:56.37]
02. Poveri [0:03:20.33]
03. Magnifica Serata [0:03:10.36]
04. Malinteso [0:03:17.48]
05. Venezia [0:03:21.00]
06. Piccolo Amore [0:03:19.28]
07. Amarsi Un Po' [0:03:23.72]
08. C'e Che Sto Bene [0:03:21.41]
09. Fortissimo [0:04:04.43]
10. Perche Ci Vuole L'Amore [0:02:52.33]

Code
Exact Audio Copy V0.99 prebeta 3 from 28. July 2007

EAC extraction logfile from 8. January 2008, 23:23

Ricchi & Poveri / Mamma Maria

Used drive  : TSSTcorpCD/DVDW SH-W162L   Adapter: 1  ID: 1

Read mode               : Secure
Utilize accurate stream : Yes
Defeat audio cache      : Yes
Make use of C2 pointers : No

Read offset correction                      : 6
Overread into Lead-In and Lead-Out          : No
Fill up missing offset samples with silence : Yes
Delete leading and trailing silent blocks   : No
Null samples used in CRC calculations       : Yes
Used interface                    : Installed external ASPI interface
Gap handling                    : Not detected, thus appended to previous track

Used output format : Internal WAV Routines
Sample format      : 44.100 Hz; 16 Bit; Stereo

TOC of the extracted CD

       Track |   Start  |  Length  | Start sector | End sector   
      ---------------------------------------------------------
          1  |  0:00.00 |  2:56.37 |         0    |    13236     
          2  |  2:56.37 |  3:20.33 |     13237    |    28269     
          3  |  6:16.70 |  3:10.36 |     28270    |    42555     
          4  |  9:27.31 |  3:17.48 |     42556    |    57378     
          5  | 12:45.04 |  3:21.00 |     57379    |    72453     
          6  | 16:06.04 |  3:19.28 |     72454    |    87406     
          7  | 19:25.32 |  3:23.72 |     87407    |   102703     
          8  | 22:49.29 |  3:21.41 |    102704    |   117819     
          9  | 26:10.70 |  4:04.43 |    117820    |   136162     
         10  | 30:15.38 |  2:52.33 |    136163    |   149095     
              

Track  1

       Filename C:\Mamma Maria.wav

       Peak level 99.0 %
       Track quality 100.0 %
       Test CRC C8DAF1FC
       Copy CRC C8DAF1FC
       Copy OK

Track  2

       Filename C:\Poveri.wav

       Peak level 99.4 %
       Track quality 100.0 %
       Test CRC 49210660
       Copy CRC 49210660
       Copy OK

Track  3

       Filename C:\Magnifica Serata.wav

       Peak level 99.1 %
       Track quality 100.0 %
       Test CRC 0506A2A4
       Copy CRC 0506A2A4
       Copy OK

Track  4

       Filename C:\Malinteso.wav

       Peak level 96.8 %
       Track quality 100.0 %
       Test CRC 817A203B
       Copy CRC 817A203B
       Copy OK

Track  5

       Filename C:\Venezia.wav

       Peak level 99.0 %
       Track quality 100.0 %
       Test CRC B8E8FF6D
       Copy CRC B8E8FF6D
       Copy OK

Track  6

       Filename C:\Piccolo Amore.wav

       Peak level 99.0 %
       Track quality 100.0 %
       Test CRC 025BE263
       Copy CRC 025BE263
       Copy OK

Track  7

       Filename C:\Amarsi Un Po'.wav

       Peak level 99.0 %
       Track quality 100.0 %
       Test CRC D7CC57A2
       Copy CRC D7CC57A2
       Copy OK

Track  8

       Filename C:\C'e Che Sto Bene.wav

       Peak level 89.2 %
       Track quality 99.9 %
       Test CRC 572BA313
       Copy CRC 572BA313
       Copy OK

Track  9

       Filename C:\Fortissimo.wav

       Peak level 99.0 %
       Track quality 100.0 %
       Test CRC 10313723
       Copy CRC 10313723
       Copy OK

Track 10

       Filename C:\Perche Ci Vuole L'Amore.wav

       Peak level 100.0 %
       Track quality 100.0 %
       Test CRC 5B8BD1F2
       Copy CRC 5B8BD1F2
       Copy OK

No errors occurred

End of status report

LINK
Category: Mainstream | Views: 378 | Added by: Rat | Rating: 0.0/0
Total comments: 0
Only registered users can add comments.
[ Registration | Login ]

«  February 2010  »
SuMoTuWeThFrSa
 123456
78910111213
14151617181920
21222324252627
28


  • Israel-club.my1.ru


  • Copyright MyCorp © 2017