Sunday, 20.08.2017, 19:11
Welcome Guest | RSS
Main
Registration
Login




Vinyl [7]
Alternative [103]
Jazz [26]
Classic rock [179]
Classical [9]
Hard & Heavy [60]
Mainstream [53]
Hip-Hop [3]
Meditative [11]
New Beats [8]
Progressive [38]
Roots [25]
OST, Campilation [28]
DTS Releases [4]
Dvd Rip [7]
DVD [7]
Lossless HTTP [54]

Rate my site
Total of answers: 17


Total online: 1
Guests: 1
Users: 0

Login form

Main » 2010 » February » 5 » Ralph Towner / Gary Peacock - A Closer View (1998)
08:38
Ralph Towner / Gary Peacock - A Closer View (1998)

Ralph Towner
Gary Peacock
A Closer View | ECM

Quote
A Closer View is the successor to 1993's Oracle, a record described by Downbeat as "charming and thoughtful, conveying the familiarity and empathy of partners who have worked together for years. Towner and Peacock share a deep interest in Bill Evans' music, which manifests itself in the light touch, intricacy and sensitivity that pervade the session." Oracle was initiated as Peacock's project and featured primarily the bassist's compositions. A Closer View reverses the formula, highlighting Towner's pieces. There are seven new tunes from the guitarist and three off-the-cuff joint compositions in an album completed by one Peacock "classic", the song "Moor". The Independent on Sunday: "Peacock's ability to combine the soulfulness of Charles Mingus with the virtuosity of Scott LaFaro makes him probably the world's most expressive double-bassist. His remarkable qualities reinvigorate the playing of Towner, whose mastery of the guitar is equally extraordinary."

released by meszrum

Ralph Towner
Gary Peacock
A Closer View

Ralph Towner classical and 12-string guitars
Gary Peacock double-bass

Opalesque
Viewpoint
Mingusiana
Creeper
Infrared
From Branch To Branch
Postcard To Salta
Toledo
Amber Captive
Moor
Beppo
A Closer View

Recorded December 1995
ECM 1602

*EAC (secure mode / offset correction)
*FLAC
*306 MB
*complete cover art with CDlabel
*another chapter of my exceptional life

EAC's log:

Code
EAC extraction logfile from 16. July 2008, 14:25 for CD
Ralph Towner / Gary Peacock / A Closer View

Used drive : ASUS DRW-1608P2S Adapter: 0 ID: 3
Read mode : Secure with NO C2, accurate stream, disable cache
Read offset correction : 48
Overread into Lead-In and Lead-Out : Yes

Used output format : C:\Program Files\Exact Audio Copy\Plugins\flac.exe (User Defined Encoder)
320 kBit/s
Additional command line options : -V -8 -T "artist=%a" -T "title=%t" -T "album=%g" -T "date=%y" -T "tracknumber=%n" -T "genre=%m" -T "comment=EAC 095pb5 / Flac 1.1.2 -8" %s

Other options :
Fill up missing offset samples with silence : Yes
Delete leading and trailing silent blocks : No
Native Win32 interface for Win NT & 2000

Track 1
Filename D:\Audio\lossless\Ralph Towner & Gary Peacock - A Closer View (1998) [FLAC]\01 - Opalesque.wav

Pre-gap length 0:00:02.00

Peak level 71.1 %
Track quality 100.0 %
Test CRC D4CDFF8F
Copy CRC D4CDFF8F
Copy OK

Track 2
Filename D:\Audio\lossless\Ralph Towner & Gary Peacock - A Closer View (1998) [FLAC]\02 - Viewpoint.wav

Peak level 54.3 %
Track quality 99.8 %
Test CRC F9165245
Copy CRC F9165245
Copy OK

Track 3
Filename D:\Audio\lossless\Ralph Towner & Gary Peacock - A Closer View (1998) [FLAC]\03 - Mingusiana.wav

Pre-gap length 0:00:03.58

Peak level 86.6 %
Track quality 100.0 %
Test CRC CB60D0AE
Copy CRC CB60D0AE
Copy OK

Track 4
Filename D:\Audio\lossless\Ralph Towner & Gary Peacock - A Closer View (1998) [FLAC]\04 - Creeper.wav

Pre-gap length 0:00:03.42

Peak level 90.6 %
Track quality 99.9 %
Test CRC 4F03223A
Copy CRC 4F03223A
Copy OK

Track 5
Filename D:\Audio\lossless\Ralph Towner & Gary Peacock - A Closer View (1998) [FLAC]\05 - Infrared.wav

Peak level 90.4 %
Track quality 99.9 %
Test CRC 4DF639ED
Copy CRC 4DF639ED
Copy OK

Track 6
Filename D:\Audio\lossless\Ralph Towner & Gary Peacock - A Closer View (1998) [FLAC]\06 - From Branch To Branch.wav

Pre-gap length 0:00:00.45

Peak level 90.8 %
Track quality 100.0 %
Test CRC 9631587C
Copy CRC 9631587C
Copy OK

Track 7
Filename D:\Audio\lossless\Ralph Towner & Gary Peacock - A Closer View (1998) [FLAC]\07 - Postcard To Salta.wav

Pre-gap length 0:00:01.20

Peak level 97.0 %
Track quality 100.0 %
Test CRC 4749B24B
Copy CRC 4749B24B
Copy OK

Track 8
Filename D:\Audio\lossless\Ralph Towner & Gary Peacock - A Closer View (1998) [FLAC]\08 - Toledo.wav

Pre-gap length 0:00:03.08

Peak level 100.0 %
Track quality 100.0 %
Test CRC 889C5C93
Copy CRC 889C5C93
Copy OK

Track 9
Filename D:\Audio\lossless\Ralph Towner & Gary Peacock - A Closer View (1998) [FLAC]\09 - Amber Captive.wav

Pre-gap length 0:00:02.15

Peak level 87.2 %
Track quality 100.0 %
Test CRC 13071574
Copy CRC 13071574
Copy OK

Track 10
Filename D:\Audio\lossless\Ralph Towner & Gary Peacock - A Closer View (1998) [FLAC]\10 - Moor.wav

Pre-gap length 0:00:02.12

Peak level 93.4 %
Track quality 100.0 %
Test CRC B0DDE4A5
Copy CRC B0DDE4A5
Copy OK

Track 11
Filename D:\Audio\lossless\Ralph Towner & Gary Peacock - A Closer View (1998) [FLAC]\11 - Beppo.wav

Pre-gap length 0:00:02.28

Peak level 89.7 %
Track quality 100.0 %
Test CRC 02B0D076
Copy CRC 02B0D076
Copy OK

Track 12
Filename D:\Audio\lossless\Ralph Towner & Gary Peacock - A Closer View (1998) [FLAC]\12 - A Closer View.wav

Pre-gap length 0:00:03.28

Peak level 84.7 %
Track quality 100.0 %
Test CRC 297A881F
Copy CRC 297A881F
Copy OK

No errors occured

End of status report

My WebPage

Category: Jazz | Views: 408 | Added by: Rat | Rating: 0.0/0
Total comments: 0
Only registered users can add comments.
[ Registration | Login ]

«  February 2010  »
SuMoTuWeThFrSa
 123456
78910111213
14151617181920
21222324252627
28


  • Israel-club.my1.ru


  • Copyright MyCorp © 2017