Monday, 11.12.2017, 18:51
Welcome Guest | RSS
Main
Registration
Login




Vinyl [7]
Alternative [103]
Jazz [26]
Classic rock [179]
Classical [9]
Hard & Heavy [60]
Mainstream [53]
Hip-Hop [3]
Meditative [11]
New Beats [8]
Progressive [38]
Roots [25]
OST, Campilation [28]
DTS Releases [4]
Dvd Rip [7]
DVD [7]
Lossless HTTP [54]

Rate my site
Total of answers: 17


Total online: 1
Guests: 1
Users: 0

Login form

Main » 2010 » March » 19 » Queen + Paul Rodgers - The Cosmos Rocks (2008)
08:28
Queen + Paul Rodgers - The Cosmos Rocks (2008)

Artist: Queen + Paul Rodgers
Album: The Cosmos Rocks
Year: 2008
Style: classic/hard Rock
Origin: United Kingdom
Format: eac-ape

Quote
The Cosmos Rocks’ hits UK and the Rest Of The World stores today!

"Our teachers were The Beatles, Jimi Hendrix, blues & soul…”

The album is released in three physical formats: standard CD, deluxe package which includes additional DVD featuring 15 highlight performances by Queen + Paul Rodgers from the band’s Super Live in Japan concert recorded live at Saitama Super Arena, Tokyo on 27th October 2005, along with double gate-fold vinyl release. The album will also have a special digital release including bonus tracks.

Coinciding with the release of The Cosmos Rocks, Queen + Paul Rodgers embark on a 33-date Europe and Northern Eurasia tour beginning mid-September.

Produced and performed by Brian May, Paul Rodgers and Roger Taylor

This album is dedicated to Freddie Mercury

The Cosmos Rocks is released in the US/Canada on October 28th 2008.

1. Cosmos Rockin'
2. Time to Shine
3. Still Burnin'
4. Small
5. Warboys
6. We Believe
7. Call Me
8. Voodoo
9. Some Things That Glitter
10. C-lebrity
11. Through The Night
12. Say It's Not True
13. Surf's Up...School's Out !
14. small reprise

Code
[b]Exact Audio Copy V0.99 prebeta 3 from 28. July 2007

EAC extraction logfile from 16. September 2008, 17:49

Queen + Paul Rodgers / The Cosmos Rocks

Used drive  : TSSTcorpCD/DVDW SH-W162L   Adapter: 1  ID: 1

Read mode               : Secure
Utilize accurate stream : Yes
Defeat audio cache      : Yes
Make use of C2 pointers : No

Read offset correction                      : 6
Overread into Lead-In and Lead-Out          : No
Fill up missing offset samples with silence : Yes
Delete leading and trailing silent blocks   : No
Null samples used in CRC calculations       : Yes
Used interface                    : Installed external ASPI interface

Used output format : Internal WAV Routines
Sample format      : 44.100 Hz; 16 Bit; Stereo

TOC of the extracted CD

       Track |   Start  |  Length  | Start sector | End sector   
      ---------------------------------------------------------
          1  |  0:00.00 |  4:11.31 |         0    |    18855     
          2  |  4:11.31 |  4:22.55 |     18856    |    38560     
          3  |  8:34.11 |  4:02.41 |     38561    |    56751     
          4  | 12:36.52 |  4:40.61 |     56752    |    77812     
          5  | 17:17.38 |  3:18.14 |     77813    |    92676     
          6  | 20:35.52 |  6:07.54 |     92677    |   120255     
          7  | 26:43.31 |  2:58.53 |    120256    |   133658     
          8  | 29:42.09 |  4:27.45 |    133659    |   153728     
          9  | 34:09.54 |  4:02.40 |    153729    |   171918     
         10  | 38:12.19 |  3:38.39 |    171919    |   188307     
         11  | 41:50.58 |  4:53.37 |    188308    |   210319     
         12  | 46:44.20 |  4:02.00 |    210320    |   228469     
         13  | 50:46.20 |  5:55.01 |    228470    |   255095     
         14  | 56:41.21 |  2:05.49 |    255096    |   264519     

Range status and errors

Selected range

       Filename C:\Queen + Paul Rodgers - The Cosmos Rocksby.rat.eac.ape.covers.Israel-club.my1.ru\Queen + Paul Rodgers - The Cosmos Rocksby.rat.eac.ape.covers.Israel-club.my1.ru.wav

       Peak level 100.0 %
       Range quality 100.0 %
       Copy CRC 4A77FC11
       Copy OK

No errors occurred

     
AccurateRip summary
     
Track  1  not present in database
Track  2  not present in database
Track  3  not present in database
Track  4  not present in database
Track  5  not present in database
Track  6  not present in database
Track  7  not present in database
Track  8  not present in database
Track  9  not present in database
Track 10  not present in database
Track 11  not present in database
Track 12  not present in database
Track 13  not present in database
Track 14  not present in database
     
None of the tracks are present in the AccurateRip database

End of status report[/b]

My WebPage

Category: Classic rock | Views: 315 | Added by: Rat | Rating: 0.0/0
Total comments: 0
Only registered users can add comments.
[ Registration | Login ]

«  March 2010  »
SuMoTuWeThFrSa
 123456
78910111213
14151617181920
21222324252627
28293031


  • Israel-club.my1.ru


  • Copyright MyCorp © 2017