Wednesday, 18.10.2017, 22:10
Welcome Guest | RSS
Main
Registration
Login




Vinyl [7]
Alternative [103]
Jazz [26]
Classic rock [179]
Classical [9]
Hard & Heavy [60]
Mainstream [53]
Hip-Hop [3]
Meditative [11]
New Beats [8]
Progressive [38]
Roots [25]
OST, Campilation [28]
DTS Releases [4]
Dvd Rip [7]
DVD [7]
Lossless HTTP [54]

Rate my site
Total of answers: 17


Total online: 1
Guests: 1
Users: 0

Login form

Main » 2010 » February » 11 » Queen - In Nuce (1969-1973) (1996)
18:29
Queen - In Nuce (1969-1973) (1996)

# Audio CD (November 21, 1996)
# Number of Discs: 1
# Format: fLAC
# Label: Milestone/Hitland

Quote
Remastered 1995 release on Milestone Records, a collection of eight early recordings from 1969-1973. Features their very first studio recording under the Smile moniker, 'Earth', and the original version of 'Mad The Swine'.

01. Going Back [0:03:18.30]
02. I Can Hear Music [0:03:21.72]
03. Mad The Swine [0:03:20.20]
04. Earth [0:03:59.28]
05. April Lady [0:02:42.09]
06. Polar Bear [0:04:01.65]
07. Step On Me [0:03:12.07]
08. Blag [0:03:11.42]

Code

Exact Audio Copy V0.99 prebeta 4 from 23. January 2008

EAC extraction logfile from 22. September 2009, 19:35

Queen / In Nuce

Used drive  : Optiarc DVD RW AD-7170A   Adapter: 3  ID: 0

Read mode               : Secure
Utilize accurate stream : Yes
Defeat audio cache      : Yes
Make use of C2 pointers : No

Read offset correction                      : 48
Overread into Lead-In and Lead-Out          : No
Fill up missing offset samples with silence : Yes
Delete leading and trailing silent blocks   : No
Null samples used in CRC calculations       : Yes
Used interface                    : Installed external ASPI interface

Used output format : Internal WAV Routines
Sample format      : 44.100 Hz; 16 Bit; Stereo

TOC of the extracted CD

       Track |   Start  |  Length  | Start sector | End sector   
      ---------------------------------------------------------
          1  |  0:00.00 |  3:18.30 |         0    |    14879     
          2  |  3:18.30 |  3:21.72 |     14880    |    30026     
          3  |  6:40.27 |  3:20.20 |     30027    |    45046     
          4  | 10:00.47 |  3:59.28 |     45047    |    62999     
          5  | 14:00.00 |  2:42.09 |     63000    |    75158     
          6  | 16:42.09 |  4:01.65 |     75159    |    93298     
          7  | 20:43.74 |  3:12.07 |     93299    |   107705     
          8  | 23:56.06 |  3:11.42 |    107706    |   122072     

Range status and errors

Selected range

       Filename C:\Documents and Settings\Мои документы\Queen - In Nuce.by.rat.eac.flac.covers.Israel-club.my1.ru\Queen - In Nuce.by.rat.eac.flac.covers.Israel-club.my1.ru.wav

       Peak level 100.0 %
       Range quality 100.0 %
       Copy CRC 3873708D
       Copy OK

No errors occurred

End of status report

DOWNLOAD

Category: Classic rock | Views: 306 | Added by: Rat | Rating: 0.0/0
Total comments: 0
Only registered users can add comments.
[ Registration | Login ]

«  February 2010  »
SuMoTuWeThFrSa
 123456
78910111213
14151617181920
21222324252627
28


  • Israel-club.my1.ru


  • Copyright MyCorp © 2017