Tuesday, 22.08.2017, 05:20
Welcome Guest | RSS
Main
Registration
Login




Vinyl [7]
Alternative [103]
Jazz [26]
Classic rock [179]
Classical [9]
Hard & Heavy [60]
Mainstream [53]
Hip-Hop [3]
Meditative [11]
New Beats [8]
Progressive [38]
Roots [25]
OST, Campilation [28]
DTS Releases [4]
Dvd Rip [7]
DVD [7]
Lossless HTTP [54]

Rate my site
Total of answers: 17


Total online: 1
Guests: 1
Users: 0

Login form

Main » 2011 » March » 11 » PUSHKING - The World As We Love It..(2011)
16:24
PUSHKING - The World As We Love It..(2011)

Released 2011 
Quality Eac-ape 
Genre hARD'N'HEAVY

Quote
Pushking is one of Russia’s most popular metal/rock bands and have released over 15 albums. The band’s new album is a tribute to their music heroes. In addition to Paul Stanley, the album features guests spots from Alice Cooper, Bonnie Tyler, Andrea Bocelli, Dan Mc Cafferty (Nazareth), Jon Lowton (Uriah Heep), Graham Bonnet (Rainbow-Alcatrazz), Glenn Hughes (Trapeze, Deep Purple, Black Sabbath), Joe Lynn Turner (Rainbow, Deep Purple) \ 
By Tom Wright 
HOLLYWOOD,CA(Hollywood Today)11/22/2010–Eagle Rock Entertainment will deliver to the masses Russia’s premiere rock band Pushking. Their CD The World As We Love It will hit the shelves on February 1. 
This new album is a 19-track celebration, composed of re-recorded selections from Pushking’s catalogue featuring some very special guests. Paul Stanley (KISS), Billy F Gibbons (ZZ Top), Alice Cooper, Steve Vai, Glenn Hughes (Deep Purple), Joe Lynn Turner (Rainbow), Keri Kelli (Alice Cooper), Steve Stevens (Billy Idol), and Nuno Bettencourt (Extreme) are just some of the elite rock alumni who RSVP’d for this musical party. 
Produced by Fabrizio Grossi (Glenn Hughes, Alice Cooper, Dave Navarro, Toto), The World As We Love It is a superior series of shifting moods, showcasing Pushking’s versatile musical prowess. Loaded with soaring harmonics, sky-scaling solos, and just the right amount of grit, the band’s genre-straddling sound is a marriage of solid hard rock and classic Eastern European heritage. 
Formed in 1994, Pushking is the culmination of vocalist/main songwriter Konstantin "Koha” Shustarev, guitarists Nikolai Yegerev and Dmitry Losev, bassist Valeriy Sadakov, keyboardist Vicktor Drobysh, and drummer Andrey Kruglov. The chemistry within this band has resulted in a potent brand of rock music, which has preserved through their 15-year career and only gets better. "..,It was a gas singin’ on their record”, states Glenn Hughes "…take it from me, it’s the real deal!!”

Track Listingstar- 
1.) Intro 
2.) Nightrider (featuring BILLY F GIBBONS - vocals, guitar) 
3.) It’ll Be OK (featuring BILLY F GIBBONS – vocals, NUNO BETTENCOURT · EXTREME – guitar) 
4.) Troubled Love (featuring ALICE COOPER - vocals, KERI KELLI · ALICE COOPER – guitar) 
5.) Stranger’s Song (featuring JOHN LAWTON · ex URIAH HEEP – vocal, STEVE STEVENS · BILLY IDOL – guitar) 
6.) Cut The Wire (featuring PAUL STANLEY · KISS – vocals, guitar STEVIE SALAS · ex BOWIE BAND) 
7.) My Reflections After Seeing The "Schindler’s List” Movie (featuring STEVE VAI – guitar) 
8.) God Made Us Free (featuring GRAHAM BONNET · ex RAINBOW, ALCATRAZZ - vocals) 
9.) Why Don’t You? (featuring GLENN HUGHES · ex DEEP PURPLE – vocals) 
10.) I Believe (featuring JEFF SCOTT SOTO · ex JOURNEY - vocals) 
11.) Tonight (featuring GLENN HUGHES · ex DEEP PURPLE - vocals, JOE BONAMASSA - guitar)

12.) Private Own (featuring GLENN HUGHES · ex DEEP PURPLE – vocals, MATT FILIPPINI · MOONSTONE – guitar) 
13.) Open Letter To God (featuring ERIC MARTIN · MR.BIG – vocals) 
14.) Nature’s Child (featuring UDO DIRKSCHNEIDER · ex ACCEPT, U.D.O. – vocals) 
15.) I Love You (featuring DAN McCAFFERTY · NAZARETH – vocals) 
16.) Head Shooter (featuring JOE LYNN TURNER · ex RAINBOW -vocals) 
17.) Heroin (featuring JORN LANDE · MASTERPLAN - vocals) 
18.) My Simple Song (featuring DAN McCAFFERTY · NAZARETH –vocals) 
19.) Kukarracha (featuring JOE LYNN TURNER, ERIC MARTIN, GLENN HUGHES, PAUL STANLEY, GRAHAM BONNET – vocals, STEVE LUKATHER · TOTO – guitar) 

Code
Exact Audio Copy V0.99 prebeta 4 from 23. January 2008 

EAC extraction logfile from 3. March 2011, 17:49 

Pushking / The World As We Love It 

Used drive  : TSSTcorpCD/DVDW SH-W162L   Adapter: 3  ID: 1 

Read mode               : Secure 
Utilize accurate stream : Yes 
Defeat audio cache      : Yes 
Make use of C2 pointers : No 

Read offset correction                      : 6 
Overread into Lead-In and Lead-Out          : No 
Fill up missing offset samples with silence : Yes 
Delete leading and trailing silent blocks   : No 
Null samples used in CRC calculations       : Yes 
Used interface                    : Installed external ASPI interface 

Used output format : Internal WAV Routines 
Sample format      : 44.100 Hz; 16 Bit; Stereo 

TOC of the extracted CD 

       Track |   Start  |  Length  | Start sector | End sector   
      --------------------------------------------------------- 
          1  |  0:00.00 |  0:14.55 |         0    |     1104     
          2  |  0:14.55 |  3:36.66 |      1105    |    17370     
          3  |  3:51.46 |  4:16.08 |     17371    |    36578     
          4  |  8:07.54 |  4:12.26 |     36579    |    55504     
          5  | 12:20.05 |  4:11.63 |     55505    |    74392     
          6  | 16:31.68 |  4:18.36 |     74393    |    93778     
          7  | 20:50.29 |  4:17.60 |     93779    |   113113     
          8  | 25:08.14 |  3:49.70 |    113114    |   130358     
          9  | 28:58.09 |  4:57.73 |    130359    |   152706     
         10  | 33:56.07 |  3:57.03 |    152707    |   170484     
         11  | 37:53.10 |  5:59.28 |    170485    |   197437     
         12  | 43:52.38 |  4:19.03 |    197438    |   216865     
         13  | 48:11.41 |  4:47.64 |    216866    |   238454     
         14  | 52:59.30 |  4:03.47 |    238455    |   256726     
         15  | 57:03.02 |  4:44.42 |    256727    |   278068     
         16  | 61:47.44 |  3:31.19 |    278069    |   293912     
         17  | 65:18.63 |  4:56.29 |    293913    |   316141     
         18  | 70:15.17 |  4:37.43 |    316142    |   336959     
         19  | 74:52.60 |  4:16.38 |    336960    |   356197     

Range status and errors 

Selected range 

       Filename C:\Documents and Settings\Мои документы\Pushking.-.The.World.As.We.Love.It.eac.covers.by.rat.lossless-muz.ucoz.com\Pushking.-.The.World.As.We.Love.It.eac.covers.by.rat.lo  ssless-muz.ucoz.wav 

       Peak level 100.0 % 
       Range quality 100.0 % 
       Copy CRC 0741F929 
       Copy OK 

No errors occurred 

End of status report

DOWNLOAD 

Category: Hard & Heavy | Views: 264 | Added by: Rat | Rating: 0.0/0
Total comments: 0
Only registered users can add comments.
[ Registration | Login ]

«  March 2011  »
SuMoTuWeThFrSa
  12345
6789101112
13141516171819
20212223242526
2728293031


  • Israel-club.my1.ru


  • Copyright MyCorp © 2017