Monday, 26.06.2017, 19:23
Welcome Guest | RSS
Main
Registration
Login




Vinyl [7]
Alternative [103]
Jazz [26]
Classic rock [179]
Classical [9]
Hard & Heavy [60]
Mainstream [53]
Hip-Hop [3]
Meditative [11]
New Beats [8]
Progressive [38]
Roots [25]
OST, Campilation [28]
DTS Releases [4]
Dvd Rip [7]
DVD [7]
Lossless HTTP [54]

Rate my site
Total of answers: 17


Total online: 1
Guests: 1
Users: 0

Login form

Main » 2010 » April » 1 » Puhdys - Sturmvogel (1976)
09:20
Puhdys - Sturmvogel (1976)

Artist: Puhdys
Album: Sturmvogel
Released: 1976
Genre: ROCK
Format: eac-ape.

Quote

The flagship band for East German rock, Puhdys formed officially in 1969 in Oranienburg, although members of the band had been working together since 1965. The band name was made up of the first letters of the initial members' first names, which at the start featured Peter Meyer on keyboards, Udo Jacob on drums, Harry Jeske on bass, and Dieter Herttrampf on vocals and guitar. By 1969 Gunter Wosylus had replaced Jacob on drums and guitarist and singer Dieter Birr had come aboard. In 1971 the group began to record for the state-run Amiga Records label, releasing its first single that year and a debut album in 1974, all featuring a progressive rock feel that drew heavy inspiration from British hard rock groups like Deep Purple. In the mid-'80s Puhdys added some new wave and synth touches to the mix in an attempt to stay timely, but by the end of the decade the group disbanded, only to reunite in 1991 for a concert that led to a revival for the band, and Puhdys have been touring and recording in various configurations ever since.

1. Sturmvogel 4:21
2. Lebenszeit 3:17
3. Als ich mir wьnschte, ein Kind zu sein 2:28
4. Untermiete 2:36
5. Schlafe ein und fang die Trдume 3:15
6. Reise zum Mittelpunkt der Erde 5:42
7. Lachen und Schweigen 4:00
8. Einsamkeit 4:30
9. Auf dem Wege 4:20

Code
Exact Audio Copy V0.99 prebeta 3 from 28. July 2007

EAC extraction logfile from 3. June 2008, 21:30

Puhdys - / Sturmvogel

Used drive  : Optiarc DVD RW AD-7170A   Adapter: 1  ID: 0

Read mode               : Secure
Utilize accurate stream : Yes
Defeat audio cache      : Yes
Make use of C2 pointers : No

Read offset correction                      : 48
Overread into Lead-In and Lead-Out          : No
Fill up missing offset samples with silence : Yes
Delete leading and trailing silent blocks   : No
Null samples used in CRC calculations       : Yes
Used interface                    : Installed external ASPI interface

Used output format : Internal WAV Routines
Sample format      : 44.100 Hz; 16 Bit; Stereo

TOC of the extracted CD

       Track |   Start  |  Length  | Start sector | End sector   
      ---------------------------------------------------------
          1  |  0:00.00 |  4:20.74 |         0    |    19573     
          2  |  4:20.74 |  3:21.10 |     19574    |    34658     
          3  |  7:42.09 |  2:30.18 |     34659    |    45926     
          4  | 10:12.27 |  2:42.07 |     45927    |    58083     
          5  | 12:54.34 |  4:54.03 |     58084    |    80136     
          6  | 17:48.37 |  5:52.18 |     80137    |   106554     
          7  | 23:40.55 |  4:02.28 |    106555    |   124732     
          8  | 27:43.08 |  4:26.51 |    124733    |   144733     
          9  | 32:09.59 |  4:21.18 |    144734    |   164326     

Range status and errors

Selected range

       Filename C:\Puhdys - Sturmvogel.by.rat.eac.ape.Israel-club.my1.ru\Puhdys - Sturmvogel.by.rat.eac.ape.Israel-club.my1.ru.wav

       Peak level 100.0 %
       Range quality 100.0 %
       Copy CRC B105D816
       Copy OK

No errors occurred

End of status report

My WebPage

Category: Roots | Views: 223 | Added by: Rat | Rating: 0.0/0
Total comments: 0
Only registered users can add comments.
[ Registration | Login ]

«  April 2010  »
SuMoTuWeThFrSa
    123
45678910
11121314151617
18192021222324
252627282930


  • Israel-club.my1.ru


  • Copyright MyCorp © 2017