Wednesday, 20.09.2017, 14:54
Welcome Guest | RSS
Main
Registration
Login




Vinyl [7]
Alternative [103]
Jazz [26]
Classic rock [179]
Classical [9]
Hard & Heavy [60]
Mainstream [53]
Hip-Hop [3]
Meditative [11]
New Beats [8]
Progressive [38]
Roots [25]
OST, Campilation [28]
DTS Releases [4]
Dvd Rip [7]
DVD [7]
Lossless HTTP [54]

Rate my site
Total of answers: 17


Total online: 1
Guests: 1
Users: 0

Login form

Main » 2010 » April » 2 » Puhdys - Alles Hat Seine Zeit (2005)
11:54
Puhdys - Alles Hat Seine Zeit (2005)

Artist:Puhdys
Album: Alles Hat Seine Zeit
Released: 2005
Genre: rock
Format: eac.ape covers

Quote
The flagship band for East German rock, Puhdys formed officially in 1969 in Oranienburg, although members of the band had been working together since 1965. The band name was made up of the first letters of the initial members' first names, which at the start featured Peter Meyer on keyboards, Udo Jacob on drums, Harry Jeske on bass, and Dieter Herttrampf on vocals and guitar. By 1969 Gunter Wosylus had replaced Jacob on drums and guitarist and singer Dieter Birr had come aboard. In 1971 the group began to record for the state-run Amiga Records label, releasing its first single that year and a debut album in 1974, all featuring a progressive rock feel that drew heavy inspiration from British hard rock groups like Deep Purple. In the mid-'80s Puhdys added some new wave and synth touches to the mix in an attempt to stay timely, but by the end of the decade the group disbanded, only to reunite in 1991 for a concert that led to a revival for the band, and Puhdys have been touring and recording in various configurations ever since.


01. Segelboot [0:04:48.43]
02. Alles hat seine Zeit [0:03:39.24]
03. Mein zweites Leben [0:03:45.42]
04. Zukunft [0:04:37.31]
05. Klone mich [0:04:33.65]
06. Der Traum [0:04:08.24]
07. Regen [0:02:54.23]
08. Gedanken [0:02:51.05]
09. Der Konig [0:04:24.48]
10. Hafenlied [0:03:50.37]
11. Was braucht man [0:03:34.43]

Code
Exact Audio Copy V0.99 prebeta 3 from 28. July 2007

EAC extraction logfile from 10. May 2008, 14:24

Die PUHDYS / Alles hat seine Zeit

Used drive  : Optiarc DVD RW AD-7170A   Adapter: 1  ID: 0

Read mode               : Secure
Utilize accurate stream : Yes
Defeat audio cache      : Yes
Make use of C2 pointers : No

Read offset correction                      : 48
Overread into Lead-In and Lead-Out          : No
Fill up missing offset samples with silence : Yes
Delete leading and trailing silent blocks   : No
Null samples used in CRC calculations       : Yes
Used interface                    : Installed external ASPI interface

Used output format : Internal WAV Routines
Sample format      : 44.100 Hz; 16 Bit; Stereo

TOC of the extracted CD

       Track |   Start  |  Length  | Start sector | End sector   
      ---------------------------------------------------------
          1  |  0:00.00 |  4:48.43 |         0    |    21642     
          2  |  4:48.43 |  3:39.24 |     21643    |    38091     
          3  |  8:27.67 |  3:45.42 |     38092    |    55008     
          4  | 12:13.34 |  4:37.31 |     55009    |    75814     
          5  | 16:50.65 |  4:33.65 |     75815    |    96354     
          6  | 21:24.55 |  4:08.24 |     96355    |   114978     
          7  | 25:33.04 |  2:54.23 |    114979    |   128051     
          8  | 28:27.27 |  2:51.05 |    128052    |   140881     
          9  | 31:18.32 |  4:24.48 |    140882    |   160729     
         10  | 35:43.05 |  3:50.37 |    160730    |   178016     
         11  | 39:33.42 |  3:34.43 |    178017    |   194109     

Range status and errors

Selected range

       Filename C:\Die PUHDYS - Alles hat seine Zeit..by.rat.eac.ape.covers.Israel-club.my1.ru\Die PUHDYS - Alles hat seine Zeit..by.rat.eac.ape.covers.Israel-club.my1.ru.wav

       Peak level 100.0 %
       Range quality 100.0 %
       Copy CRC 32E49D5C
       Copy OK

No errors occurred

End of status report

My WebPage

Category: Roots | Views: 261 | Added by: Rat | Rating: 0.0/0
Total comments: 0
Only registered users can add comments.
[ Registration | Login ]

«  April 2010  »
SuMoTuWeThFrSa
    123
45678910
11121314151617
18192021222324
252627282930


  • Israel-club.my1.ru


  • Copyright MyCorp © 2017