Saturday, 21.10.2017, 18:04
Welcome Guest | RSS
Main
Registration
Login




Vinyl [7]
Alternative [103]
Jazz [26]
Classic rock [179]
Classical [9]
Hard & Heavy [60]
Mainstream [53]
Hip-Hop [3]
Meditative [11]
New Beats [8]
Progressive [38]
Roots [25]
OST, Campilation [28]
DTS Releases [4]
Dvd Rip [7]
DVD [7]
Lossless HTTP [54]

Rate my site
Total of answers: 17


Total online: 1
Guests: 1
Users: 0

Login form

Main » 2010 » March » 29 » PUHDYS - 2 (1972)
23:43
PUHDYS - 2 (1972)

Artist: Damage Control
Album: Damage Control
Release: 2007
Genre: Blues/ Hard Rock
Country: UK
Format: eac/ape/covers

Quote
The first Puhdys album, released in early 1974, was very successful, and remains a well-regarded album among the band's fans, despite being in part derivative of western artists; this was due in part to the political impossibility of using the original songs in Paul and Paula, and director Carow's desire for close German-language equivalents. It compiled the band's singles up to that point, including three of the four songs from the film ("Geh zu ihr," Go To Her, based on Slade's "Look Wot You Dun "; "Wenn ein Mensch lebt," If Someone Lives, which drew heavily on the Bee Gees' "Spicks and Specks"; and "Zeiten und Weiten," Times And Widths); the fourth ("Manchmal im Schlaf," Sometimes In Sleep) was included on the second album, released in 1975, which was somewhat less well received, although it included "Steine" (Stones) and "Lied für Generationen" (Song For Generations), two of the band's better-known songs, and it arguably established a more distinctive performance style than the first album.


1. Langstreckenlauf 4:25
2. Lied fьr Generationen 4:10
3. Kinder 3:35
4. Steine 4:27
5. Scheidung 3:15
6. Jodelkuh - Lotte 4:14
7. Spiel zu zweit 3:50
8. Sonntagsfahrer 3:17
9. Manchmal im Schlaf 4:25
10. Die Sonne kennt ihren Weg 3:20

Code

Exact Audio Copy V0.99 prebeta 3 from 28. July 2007

EAC extraction logfile from 23. July 2008, 19:46

Puhdys / Puhdys 2

Used drive  : Optiarc DVD RW AD-7170A   Adapter: 1  ID: 0

Read mode               : Secure
Utilize accurate stream : Yes
Defeat audio cache      : Yes
Make use of C2 pointers : No

Read offset correction                      : 48
Overread into Lead-In and Lead-Out          : No
Fill up missing offset samples with silence : Yes
Delete leading and trailing silent blocks   : No
Null samples used in CRC calculations       : Yes
Used interface                    : Installed external ASPI interface

Used output format : Internal WAV Routines
Sample format      : 44.100 Hz; 16 Bit; Stereo

TOC of the extracted CD

        Track |   Start  |  Length  | Start sector | End sector    
       ---------------------------------------------------------
           1  |  0:00.00 |  4:25.03 |         0    |    19877      
           2  |  4:25.03 |  4:12.72 |     19878    |    38849      
           3  |  8:38.00 |  3:36.03 |     38850    |    55052      
           4  | 12:14.03 |  4:27.27 |     55053    |    75104      
           5  | 16:41.30 |  3:17.48 |     75105    |    89927      
           6  | 19:59.03 |  4:09.65 |     89928    |   108667      
           7  | 24:08.68 |  3:52.72 |    108668    |   126139      
           8  | 28:01.65 |  3:14.25 |    126140    |   140714      
           9  | 31:16.15 |  4:25.33 |    140715    |   160622      
          10  | 35:41.48 |  3:22.10 |    160623    |   175782      

Range status and errors

Selected range

        Filename C:\Puhdys - Puhdys.2.by.rat.eac.ape.covers.Israel-club.my1.ru\Puhdys - Puhdys.2.by.rat.eac.ape.covers.Israel-club.my1.ru.wav

        Peak level 98.0 %
        Range quality 100.0 %
        Copy CRC BB7265EC
        Copy OK

No errors occurred

       
AccurateRip summary
       
Track  1  not present in database
Track  2  not present in database
Track  3  not present in database
Track  4  not present in database
Track  5  not present in database
Track  6  not present in database
Track  7  not present in database
Track  8  not present in database
Track  9  not present in database
Track 10  not present in database
       
None of the tracks are present in the AccurateRip database

End of status report

DOWLOAD

Category: Roots | Views: 232 | Added by: Rat | Rating: 0.0/0
Total comments: 0
Only registered users can add comments.
[ Registration | Login ]

«  March 2010  »
SuMoTuWeThFrSa
 123456
78910111213
14151617181920
21222324252627
28293031


  • Israel-club.my1.ru


  • Copyright MyCorp © 2017