Saturday, 19.08.2017, 07:40
Welcome Guest | RSS
Main
Registration
Login




Vinyl [7]
Alternative [103]
Jazz [26]
Classic rock [179]
Classical [9]
Hard & Heavy [60]
Mainstream [53]
Hip-Hop [3]
Meditative [11]
New Beats [8]
Progressive [38]
Roots [25]
OST, Campilation [28]
DTS Releases [4]
Dvd Rip [7]
DVD [7]
Lossless HTTP [54]

Rate my site
Total of answers: 17


Total online: 1
Guests: 1
Users: 0

Login form

Main » 2010 » March » 21 » PUHDYS - "1"(1974)
22:47
PUHDYS - "1"(1974)

Artist - PUHDYS
Album - 1
Genre- rock
Year- 1974
format-eac/ape

Quote

The Puhdys developed out of the Udo-Wendel-Combo, founded in 1965. When guitarist and singer Wendel left the band late in the year, it needed a new name. The four members took the letters from their first names — keyboardist Peter Meyer, drummer Udo Jacob, bassist (and sometimes manager) Harry Jeske, and lead guitarist and singer Dieter Hertrampf (who had replaced Wendel) — to become the Puhdys. [1] The band went through further personnel changes until 1969, when they were given a professional performance license, which was all-important in East Germany. By then, Jacob had been replaced by Gunter Wosylus and vocalist-guitarist Dieter Birr had joined, cementing the band's lineup for the next ten years; the band dates this, rather than 1965, as its foundation. (The two Dieters are differentiated by their nicknames: "Quaster" Hertrampf, from a corruption of the title of The Shadows' "Quartermaster's Stores," after his long attempt to learn the Hank Marvin guitar solo; and "Maschine" Birr, once called an "eating machine" by his bandmates for his voracious appetite.)[2]

Their first concert took place in Freiberg, Saxony, on November 21, 1969. Early performances were heavily influenced by British hard rock bands such as Deep Purple and Uriah Heep, although the band were fond of earlier American rockers such as Elvis Presley. At first, they largely performed cover versions of foreign acts. Although there was a great demand for covers in East Germany, largely because the audience was unable to buy western albums, rock music was still viewed with suspicion in the GDR. The artistic climate changed after Erich Honecker came to power in 1971, and the Puhdys were offered the chance to record for the state-run Amiga label, as long as they performed in the German language and remained apolitical.


1. Vorn ist das Licht 3:32
2. Von der Liebe ein Lied 4:08
3. Mann im Mond 2:55
4. Vineta 5:42
5. Tьren цffnen sich zur Stadt 5:20
6. Sommernacht 3:29
7. Ikarus 4:45
8. Geh zu ihr 2:44
9. Wenn ein Mensch lebt 3:25
10. Zeiten und Weiten 4:00

Code
Exact Audio Copy V0.99 prebeta 3 from 28. July 2007

EAC extraction logfile from 9. July 2008, 18:25

Die Puhdys / Puhdys 1

Used drive  : TSSTcorpCD/DVDW SH-W162L   Adapter: 1  ID: 1

Read mode               : Secure
Utilize accurate stream : Yes
Defeat audio cache      : Yes
Make use of C2 pointers : No

Read offset correction                      : 6
Overread into Lead-In and Lead-Out          : No
Fill up missing offset samples with silence : Yes
Delete leading and trailing silent blocks   : No
Null samples used in CRC calculations       : Yes
Used interface                    : Native Win32 interface for Win NT & 2000

Used output format : Internal WAV Routines
Sample format      : 44.100 Hz; 16 Bit; Stereo

TOC of the extracted CD

       Track |   Start  |  Length  | Start sector | End sector   
      ---------------------------------------------------------
          1  |  0:00.00 |  3:29.48 |         0    |    15722     
          2  |  3:29.48 |  4:05.48 |     15723    |    34145     
          3  |  7:35.21 |  2:52.48 |     34146    |    47093     
          4  | 10:27.69 |  5:45.48 |     47094    |    73016     
          5  | 16:13.42 |  5:20.48 |     73017    |    97064     
          6  | 21:34.15 |  3:24.48 |     97065    |   112412     
          7  | 24:58.63 |  4:46.48 |    112413    |   133910     
          8  | 29:45.36 |  2:43.48 |    133911    |   146183     
          9  | 32:29.09 |  3:17.48 |    146184    |   161006     
         10  | 35:46.57 |  3:58.48 |    161007    |   178904     

Range status and errors

Selected range

       Filename C:\Die.Puhdys.-.Puhdys.1.by.rat.eac.ape.Israel-club.my1.ru\Die Puhdys - Puhdys 1.by.rat.eac.ape.covers.Israel-club.my1.ru.wav

       Peak level 98.0 %
       Range quality 100.0 %
       Copy CRC D07F9AAC
       Copy OK

No errors occurred

     
AccurateRip summary
     
Track  1  not present in database
Track  2  not present in database
Track  3  not present in database
Track  4  not present in database
Track  5  not present in database
Track  6  not present in database
Track  7  not present in database
Track  8  not present in database
Track  9  not present in database
Track 10  not present in database
     
None of the tracks are present in the AccurateRip database

End of status report

My WebPage

Category: Roots | Views: 289 | Added by: Rat | Rating: 0.0/0
Total comments: 0
Only registered users can add comments.
[ Registration | Login ]

«  March 2010  »
SuMoTuWeThFrSa
 123456
78910111213
14151617181920
21222324252627
28293031


  • Israel-club.my1.ru


  • Copyright MyCorp © 2017